<?xml version="1.0" standalone="no"?>
<!DOCTYPE svg PUBLIC "-//W3C//DTD SVG 1.1//EN" "http://www.w3.org/Graphics/SVG/1.1/DTD/svg11.dtd" >
<svg>
<metadata>
Created by FontForge 20090622 at Mon Nov 27 14:55:38 2017
 By deploy user
Copyright (c) 2009 by TypeTogether. All rights reserved.
</metadata>
<defs>
<font id="Adelle-Regular" horiz-adv-x="570" >
  <font-face 
    font-family="Adelle Rg"
    font-weight="400"
    font-stretch="normal"
    units-per-em="1000"
    panose-1="2 0 5 3 6 0 0 2 0 4"
    ascent="755"
    descent="-245"
    x-height="514"
    cap-height="724"
    bbox="-137 -292 1282 970"
    underline-thickness="50"
    underline-position="-50"
    unicode-range="U+0020-U+FB06"
  />
<missing-glyph horiz-adv-x="500" 
 />
    <glyph glyph-name="ff" unicode="ff" horiz-adv-x="739" 
d="M211 445v-363q0 -12 2.5 -15.5t12.5 -4.5l86 -8v-54h-272v55l64 7q10 1 13 4.5t3 15.5v353q0 10 -8 10h-72v69h80v74q0 79 53 121t159 42q98 0 148 -48q45 63 156 63q70 0 109.5 -25.5t39.5 -93.5l-85 -12q0 38 -16 50.5t-53 12.5q-51 0 -69.5 -26t-18.5 -79v-69
q0 -10 8 -10h164v-69h-172v-362q0 -12 2.5 -15.5t13.5 -4.5l117 -9v-54h-294v53l54 6q10 1 13 4.5t3 15.5v356q0 10 -8 10h-233zM452 514v79q0 44 -27.5 66.5t-95.5 22.5q-65 0 -91.5 -25.5t-26.5 -74.5v-58q0 -10 8 -10h233z" />
    <glyph glyph-name="fi" unicode="fi" horiz-adv-x="641" 
d="M623 0h-253v55l66 6q10 1 13 4.5t3 15.5v349q0 15 -14 15h-227v-362q0 -13 2.5 -15.5t13.5 -4.5l79 -9v-54h-266v54l62 9q7 1 10.5 2.5t5.5 5.5t2 12v352q0 10 -8 10h-72v69h80v75q0 96 51.5 136.5t176.5 40.5q38 0 60 -1.5t48.5 -8t41 -19.5t25 -36.5t11.5 -57.5
l-86 -11q-1 44 -20 55t-84 11q-80 0 -106.5 -23t-26.5 -82v-68q0 -11 10 -11h322v-433q0 -12 2.5 -15.5t13.5 -4.5l64 -7v-54z" />
    <glyph glyph-name="fl" unicode="fl" horiz-adv-x="641" 
d="M619 0h-245v55l62 6q10 1 13 4.5t3 15.5v544q0 48 -22.5 60.5t-85.5 12.5q-80 0 -106.5 -23t-26.5 -82v-68q0 -11 10 -11h147v-69h-157v-362q0 -13 2.5 -15.5t13.5 -4.5l79 -9v-54h-266v54l62 9q7 1 10.5 2.5t5.5 5.5t2 12v352q0 10 -8 10h-72v69h80v75q0 96 51.5 136.5
t176.5 40.5q40 0 64.5 -2t52.5 -9t43 -21t25 -39t10 -61v-553q0 -12 2.5 -15.5t13.5 -4.5l60 -7v-54z" />
    <glyph glyph-name="ffi" unicode="ffi" horiz-adv-x="973" 
d="M955 0h-253v55l66 6q10 1 13 4.5t3 15.5v349q0 15 -14 15h-227v-362q0 -13 2.5 -15.5t13.5 -4.5l79 -9v-54h-266v54l62 9q7 1 10.5 2.5t5.5 5.5t2 12v352q0 10 -8 10h-233v-363q0 -12 2.5 -15.5t12.5 -4.5l86 -8v-54h-272v55l64 7q10 1 13 4.5t3 15.5v353q0 10 -8 10h-72
v69h80v74q0 78 52 120.5t155 42.5q102 0 153 -49q48 64 200 64q38 0 60 -1.5t48.5 -8t41 -19.5t25 -36.5t11.5 -57.5l-86 -11q-1 44 -20 55t-84 11q-80 0 -106.5 -23t-26.5 -82v-68q0 -11 10 -11h322v-433q0 -12 2.5 -15.5t13.5 -4.5l64 -7v-54zM452 514v75q0 48 -27 70.5
t-96 22.5q-65 0 -91.5 -25.5t-26.5 -74.5v-58q0 -10 8 -10h233z" />
    <glyph glyph-name="ffl" unicode="ffl" horiz-adv-x="973" 
d="M951 0h-245v55l62 6q10 1 13 4.5t3 15.5v544q0 48 -22.5 60.5t-85.5 12.5q-80 0 -106.5 -23t-26.5 -82v-68q0 -11 10 -11h147v-69h-157v-362q0 -13 2.5 -15.5t13.5 -4.5l79 -9v-54h-266v54l62 9q7 1 10.5 2.5t5.5 5.5t2 12v352q0 10 -8 10h-233v-363q0 -12 2.5 -15.5
t12.5 -4.5l86 -8v-54h-272v55l64 7q10 1 13 4.5t3 15.5v353q0 10 -8 10h-72v69h80v74q0 78 52 120.5t155 42.5q102 0 153 -49q27 35 74 49.5t126 14.5q40 0 64.5 -2t52.5 -9t43 -21t25 -39t10 -61v-553q0 -12 2.5 -15.5t13.5 -4.5l60 -7v-54zM452 514v75q0 47 -27.5 70
t-95.5 23q-65 0 -91.5 -25.5t-26.5 -74.5v-58q0 -10 8 -10h233z" />
    <glyph glyph-name="fk" unicode="fk" horiz-adv-x="935" 
d="M543 634v-360l212 240h111v-54l-57 -12q-14 -2 -25 -15l-91 -102l152 -252q8 -12 29 -16l52 -9v-54h-237v54l63 8l-125 207l-84 -94v-94q0 -12 2.5 -15.5t13.5 -4.5l60 -7v-54h-245v55l62 6q10 1 13 4.5t3 15.5v544q0 48 -22.5 60.5t-85.5 12.5q-80 0 -106.5 -23
t-26.5 -82v-68q0 -11 10 -11h147v-69h-157v-362q0 -13 2.5 -15.5t13.5 -4.5l79 -9v-54h-266v54l62 9q7 1 10.5 2.5t5.5 5.5t2 12v352q0 10 -8 10h-72v69h80v75q0 96 51.5 136.5t176.5 40.5q40 0 64.5 -2t52.5 -9t43 -21t25 -39t10 -61z" />
    <glyph glyph-name="fb" unicode="fb" horiz-adv-x="946" 
d="M543 634v-168q91 58 171 58q88 0 138.5 -60.5t50.5 -187.5q0 -148 -56 -218t-155 -70q-91 0 -154 60h-4l-5 -48h-89q12 74 12 143v482q0 48 -22.5 60.5t-85.5 12.5q-80 0 -106.5 -23t-26.5 -82v-68q0 -11 10 -11h147v-69h-157v-362q0 -13 2.5 -15.5t13.5 -4.5l79 -9v-54
h-266v54l62 9q7 1 10.5 2.5t5.5 5.5t2 12v352q0 10 -8 10h-72v69h80v75q0 96 51.5 136.5t176.5 40.5q40 0 64.5 -2t52.5 -9t43 -21t25 -39t10 -61zM543 392v-264q69 -65 137 -65q131 0 131 205q0 93 -32.5 136.5t-88.5 43.5q-69 0 -147 -56z" />
    <glyph glyph-name="fh" unicode="fh" horiz-adv-x="974" 
d="M543 634v-176q92 66 180 66q154 0 154 -182v-261q0 -12 2.5 -15.5t13.5 -4.5l57 -7v-54h-230v55l48 6q18 1 18 20v233q0 64 -17.5 98.5t-66.5 34.5q-76 0 -158 -65v-301q0 -12 2.5 -15.5t13.5 -4.5l56 -7v-54h-229v55l50 6q10 1 12.5 4.5t2.5 15.5v544q0 48 -22.5 60.5
t-85.5 12.5q-80 0 -106.5 -23t-26.5 -82v-68q0 -11 10 -11h147v-69h-157v-362q0 -13 2.5 -15.5t13.5 -4.5l79 -9v-54h-266v54l62 9q7 1 10.5 2.5t5.5 5.5t2 12v352q0 10 -8 10h-72v69h80v75q0 96 51.5 136.5t176.5 40.5q40 0 64.5 -2t52.5 -9t43 -21t25 -39t10 -61z" />
    <glyph glyph-name="ft" unicode="ft" horiz-adv-x="757" 
d="M708 83l22 -64q-78 -31 -139 -31q-139 0 -139 135v312q0 10 -8 10h-233v-362q0 -13 2.5 -15.5t13.5 -4.5l79 -9v-54h-266v54l62 9q7 1 10.5 2.5t5.5 5.5t2 12v352q0 10 -8 10h-72v69h80v75q0 96 51.5 136.5t176.5 40.5q38 0 60 -1.5t48.5 -8t41 -19.5t25 -36.5
t11.5 -57.5l-86 -11q-1 44 -20 55t-84 11q-80 0 -106.5 -23t-26.5 -82v-68q0 -11 10 -11h231v72h91v-62q0 -10 8 -10h147v-69h-155v-295q0 -48 15 -67.5t57 -19.5q44 0 93 20z" />
    <glyph glyph-name="fj" unicode="fj" horiz-adv-x="633" 
d="M452 -47v477q0 15 -14 15h-227v-362q0 -13 2.5 -15.5t13.5 -4.5l79 -9v-54h-266v54l62 9q7 1 10.5 2.5t5.5 5.5t2 12v352q0 10 -8 10h-72v69h80v75q0 96 51.5 136.5t176.5 40.5q38 0 60 -1.5t48.5 -8t41 -19.5t25 -36.5t11.5 -57.5l-86 -11q-1 44 -20 55t-84 11
q-80 0 -106.5 -23t-26.5 -82v-68q0 -11 10 -11h322v-579q0 -80 -35.5 -119t-108.5 -39q-43 0 -81.5 12.5t-58.5 29.5l36 59q38 -29 90 -29q38 0 52.5 24t14.5 80z" />
    <glyph glyph-name="ffj" unicode="ffj" horiz-adv-x="965" 
d="M784 -47v477q0 15 -14 15h-227v-362q0 -13 2.5 -15.5t13.5 -4.5l79 -9v-54h-266v54l62 9q7 1 10.5 2.5t5.5 5.5t2 12v352q0 10 -8 10h-233v-363q0 -12 2.5 -15.5t12.5 -4.5l86 -8v-54h-272v55l64 7q10 1 13 4.5t3 15.5v353q0 10 -8 10h-72v69h80v74q0 78 52 120.5
t155 42.5q101 0 153 -50q48 65 200 65q38 0 60 -1.5t48.5 -8t41 -19.5t25 -36.5t11.5 -57.5l-86 -11q-1 44 -20 55t-84 11q-80 0 -106.5 -23t-26.5 -82v-68q0 -11 10 -11h322v-579q0 -80 -35.5 -119t-108.5 -39q-43 0 -81.5 12.5t-58.5 29.5l36 59q38 -29 90 -29
q38 0 52.5 24t14.5 80zM452 514v75q0 45 -27.5 69t-95.5 24q-65 0 -91.5 -25.5t-26.5 -74.5v-58q0 -10 8 -10h233z" />
    <glyph glyph-name="ffk" unicode="ffk" horiz-adv-x="1267" 
d="M875 634v-360l212 240h111v-54l-57 -12q-14 -2 -25 -15l-91 -102l152 -252q8 -12 29 -16l52 -9v-54h-237v54l63 8l-125 207l-84 -94v-94q0 -12 2.5 -15.5t13.5 -4.5l60 -7v-54h-245v55l62 6q10 1 13 4.5t3 15.5v544q0 48 -22.5 60.5t-85.5 12.5q-80 0 -106.5 -23
t-26.5 -82v-68q0 -11 10 -11h147v-69h-157v-362q0 -13 2.5 -15.5t13.5 -4.5l79 -9v-54h-266v54l62 9q7 1 10.5 2.5t5.5 5.5t2 12v352q0 10 -8 10h-233v-363q0 -12 2.5 -15.5t12.5 -4.5l86 -8v-54h-272v55l64 7q10 1 13 4.5t3 15.5v353q0 10 -8 10h-72v69h80v74
q0 79 52.5 121t156.5 42q105 0 151 -51q27 37 73.5 51.5t126.5 14.5q40 0 64.5 -2t52.5 -9t43 -21t25 -39t10 -61zM219 514h233v73q0 50 -27 72.5t-96 22.5q-65 0 -91.5 -25.5t-26.5 -74.5v-58q0 -10 8 -10z" />
    <glyph glyph-name="ffb" unicode="ffb" horiz-adv-x="1278" 
d="M875 634v-168q91 58 171 58q88 0 138.5 -60.5t50.5 -187.5q0 -148 -56 -218t-155 -70q-91 0 -154 60h-4l-5 -48h-89q12 74 12 143v482q0 48 -22.5 60.5t-85.5 12.5q-80 0 -106.5 -23t-26.5 -82v-68q0 -11 10 -11h147v-69h-157v-362q0 -13 2.5 -15.5t13.5 -4.5l79 -9v-54
h-266v54l62 9q7 1 10.5 2.5t5.5 5.5t2 12v352q0 10 -8 10h-233v-363q0 -12 2.5 -15.5t12.5 -4.5l86 -8v-54h-272v55l64 7q10 1 13 4.5t3 15.5v353q0 10 -8 10h-72v69h80v74q0 79 53 121t159 42q100 0 148 -50q47 65 200 65q40 0 64.5 -2t52.5 -9t43 -21t25 -39t10 -61z
M875 392v-264q69 -65 137 -65q131 0 131 205q0 93 -32.5 136.5t-88.5 43.5q-69 0 -147 -56zM452 514v75q0 48 -27 70.5t-96 22.5q-65 0 -91.5 -25.5t-26.5 -74.5v-58q0 -10 8 -10h233z" />
    <glyph glyph-name="ffh" unicode="ffh" horiz-adv-x="1307" 
d="M875 634v-176q92 66 180 66q154 0 154 -182v-261q0 -12 2.5 -15.5t13.5 -4.5l57 -7v-54h-230v55l48 6q18 1 18 20v233q0 64 -17.5 98.5t-66.5 34.5q-76 0 -158 -65v-301q0 -12 2.5 -15.5t13.5 -4.5l56 -7v-54h-229v55l50 6q10 1 12.5 4.5t2.5 15.5v544q0 48 -22.5 60.5
t-85.5 12.5q-80 0 -106.5 -23t-26.5 -82v-68q0 -11 10 -11h147v-69h-157v-362q0 -13 2.5 -15.5t13.5 -4.5l79 -9v-54h-266v54l62 9q7 1 10.5 2.5t5.5 5.5t2 12v352q0 10 -8 10h-233v-363q0 -12 2.5 -15.5t12.5 -4.5l86 -8v-54h-272v55l64 7q10 1 13 4.5t3 15.5v353
q0 10 -8 10h-72v69h80v74q0 78 52 120.5t155 42.5q110 0 152 -51q28 36 75 51t126 15q40 0 64.5 -2t52.5 -9t43 -21t25 -39t10 -61zM452 514v71q0 49 -27.5 73t-95.5 24q-65 0 -91.5 -25.5t-26.5 -74.5v-58q0 -10 8 -10h233z" />
    <glyph glyph-name="fft" unicode="fft" horiz-adv-x="1089" 
d="M1040 83l22 -64q-77 -31 -139 -31q-139 0 -139 135v312q0 10 -8 10h-233v-362q0 -13 2.5 -15.5t13.5 -4.5l79 -9v-54h-266v54l62 9q7 1 10.5 2.5t5.5 5.5t2 12v352q0 10 -8 10h-233v-363q0 -12 2.5 -15.5t12.5 -4.5l86 -8v-54h-272v55l64 7q10 1 13 4.5t3 15.5v353
q0 10 -8 10h-72v69h80v74q0 79 53 121t159 42q101 0 148 -52q27 36 74 51.5t126 15.5q38 0 60 -1.5t48.5 -8t41 -19.5t25 -36.5t11.5 -57.5l-86 -11q-1 44 -20 55t-84 11q-80 0 -106.5 -23t-26.5 -82v-68q0 -11 10 -11h231v72h91v-62q0 -10 8 -10h147v-69h-155v-295
q0 -48 15 -67.5t57 -19.5q44 0 93 20zM452 514v69q0 49 -27 74t-96 25q-65 0 -91.5 -25.5t-26.5 -74.5v-58q0 -10 8 -10h233z" />
    <glyph glyph-name="f_iacute" unicode="f&#xed;" horiz-adv-x="638" 
d="M623 0h-253v55l66 6q10 1 13 4.5t3 15.5v349q0 15 -14 15h-227v-362q0 -13 2.5 -15.5t13.5 -4.5l79 -9v-54h-266v54l62 9q7 1 10.5 2.5t5.5 5.5t2 12v352q0 10 -8 10h-72v69h80v68q0 86 40.5 127t129.5 41q61 0 93.5 -20t40.5 -77l-73 -20q-2 30 -15.5 39t-45.5 9
q-46 0 -62.5 -22.5t-16.5 -74.5v-59q0 -11 10 -11h322v-433q0 -12 2.5 -15.5t13.5 -4.5l64 -7v-54zM643 708l-176 -141l-39 37l155 164z" />
    <glyph glyph-name="tt" unicode="tt" horiz-adv-x="755" 
d="M705 83l22 -64q-77 -31 -139 -31q-139 0 -139 135v312q0 9 -6 10h-246v-295q0 -48 15 -67.5t57 -19.5q44 0 93 20l22 -64q-78 -31 -139 -31q-139 0 -139 135v312q0 10 -8 10h-73v58q58 7 80.5 36.5t32.5 106.5h59v-122q0 -10 8 -10h209q30 12 44.5 42t22.5 90h59v-122
q0 -10 8 -10h147v-69h-155v-295q0 -48 15 -67.5t57 -19.5q44 0 93 20z" />
    <glyph glyph-name=".notdef" horiz-adv-x="500" 
 />
    <glyph glyph-name=".null" horiz-adv-x="0" 
 />
    <glyph glyph-name="nonmarkingreturn" horiz-adv-x="333" 
 />
    <glyph glyph-name="space" unicode=" " horiz-adv-x="222" 
 />
    <glyph glyph-name="exclam" unicode="!" horiz-adv-x="262" 
d="M169 187h-75l-14 371v166h101v-166zM198 51q0 -63 -66 -63t-66 63t66 63t66 -63z" />
    <glyph glyph-name="quotedbl" unicode="&#x22;" horiz-adv-x="364" 
d="M148 447h-90v259h90v-259zM306 447h-90v259h90v-259z" />
    <glyph glyph-name="numbersign" unicode="#" horiz-adv-x="607" 
d="M394 0h-72l21 139h-121l-21 -139h-72l20 139h-115l15 66h111l23 148h-115l14 67h111l18 123h73l-19 -123h119l19 123h72l-19 -123h115l-13 -67h-112l-21 -148h113l-13 -66h-110zM353 205l21 148h-119l-23 -148h121z" />
    <glyph glyph-name="dollar" unicode="$" horiz-adv-x="523" 
d="M468 176q0 -74 -44 -117t-123 -55v-84h-71v80q-116 3 -188 37v140h66l16 -69q2 -11 6 -16t16 -9q33 -13 84 -16v213q-40 11 -63.5 21t-51.5 28.5t-41.5 48.5t-13.5 72q0 78 46.5 122t123.5 54v74h71v-72q70 -3 159 -32v-152l-67 7l-16 77q-2 11 -6 15.5t-14 7.5
q-22 7 -56 9v-215q38 -12 62 -22t51 -29t40.5 -48.5t13.5 -69.5zM145 463q0 -37 22 -59t63 -37v189q-85 -18 -85 -93zM381 165q0 36 -20.5 57t-59.5 36v-186q80 19 80 93z" />
    <glyph glyph-name="percent" unicode="%" horiz-adv-x="865" 
d="M204 257q-83 0 -121 49.5t-38 126.5q0 85 43 136t124 51q159 0 159 -174q0 -86 -43 -137.5t-124 -51.5zM286 -17h-87l377 638h86zM208 318q46 0 65 32t19 92q0 116 -82 116q-46 0 -66 -34t-20 -85q0 -121 84 -121zM654 -12q-84 0 -122 49.5t-38 126.5q0 85 43.5 136
t124.5 51q158 0 158 -174q0 -86 -43 -137.5t-123 -51.5zM657 49q47 0 65.5 32t18.5 92q0 116 -81 116q-46 0 -66 -34t-20 -85q0 -121 83 -121z" />
    <glyph glyph-name="ampersand" unicode="&#x26;" horiz-adv-x="709" 
d="M673 0h-125l-77 93q-85 -105 -222 -105q-97 0 -155.5 54.5t-58.5 146.5q0 79 44.5 133t129.5 77q-52 63 -52 126q0 71 47 110t121 39q43 0 87.5 -11.5t65.5 -23.5v-135l-67 3l-12 68q-3 14 -15 18q-20 8 -56 8q-42 0 -63 -18t-21 -50q0 -33 16.5 -61t66.5 -88l135 -160
q28 81 34 163h131v-53l-45 -8q-9 -2 -13 -5t-5 -13q-14 -85 -43 -146l71 -84q10 -11 26 -15l55 -9v-54zM418 151l-162 190q-61 -12 -96.5 -49.5t-35.5 -100.5q0 -53 34 -90.5t101 -37.5q98 0 159 88z" />
    <glyph glyph-name="quotesingle" unicode="'" horiz-adv-x="206" 
d="M148 447h-90v259h90v-259z" />
    <glyph glyph-name="parenleft" unicode="(" horiz-adv-x="300" 
d="M273 -119l-71 -39q-148 219 -148 438q0 227 157 449l69 -42q-67 -108 -99 -203t-32 -203q0 -63 9 -118t29 -106.5t37.5 -86.5t48.5 -89z" />
    <glyph glyph-name="parenright" unicode=")" horiz-adv-x="300" 
d="M96 -158l-70 40q62 105 94 194.5t32 206.5q0 108 -32 201t-98 203l69 42q155 -219 155 -447q0 -219 -150 -440z" />
    <glyph glyph-name="asterisk" unicode="*" horiz-adv-x="471" 
d="M146 393l-58 48l41 50l81 67l-104 13l-62 22l25 71l62 -22l88 -54l-21 102v65h75v-65l-21 -102h-33l-9 -30l26 -22l-48 -91zM384 441l-59 -48l-41 52l-48 91l26 21l-10 31l89 54l61 22l25 -71l-62 -22l-103 -14l80 -66z" />
    <glyph glyph-name="plus" unicode="+" 
d="M326 128h-83v153h-147v81h147v150h83v-150h147v-81h-147v-153z" />
    <glyph glyph-name="comma" unicode="," horiz-adv-x="185" 
d="M87 -118l-47 17l30 105q1 7 -5 10l-35 14l22 83q55 -2 82 -14.5t27 -49.5q0 -19 -16 -53z" />
    <glyph glyph-name="hyphen" unicode="-" horiz-adv-x="311" 
d="M291 247h-271v89h271v-89z" />
    <glyph glyph-name="period" unicode="." horiz-adv-x="212" 
d="M172 51q0 -63 -66 -63t-66 63t66 63t66 -63z" />
    <glyph glyph-name="slash" unicode="/" horiz-adv-x="377" 
d="M90 -92h-83l281 847h82z" />
    <glyph glyph-name="zero" unicode="0" horiz-adv-x="574" 
d="M284 -12q-71 0 -120 22.5t-74.5 65t-36 92.5t-10.5 116q0 50 7.5 93t25.5 82t46 66t72 43t100 16q69 0 117 -22t73.5 -63.5t36 -90t10.5 -111.5q0 -309 -247 -309zM287 62q81 0 115 58t34 170q0 110 -31.5 163.5t-112.5 53.5q-83 0 -118.5 -56.5t-35.5 -171.5
q0 -105 33.5 -161t115.5 -56z" />
    <glyph glyph-name="one" unicode="1" horiz-adv-x="365" 
d="M342 0h-312v55l101 6q10 1 13 4.5t3 15.5v393q0 17 -14 21l-95 18l7 56h193v-488q0 -12 2.5 -15.5t13.5 -4.5l88 -7v-54z" />
    <glyph glyph-name="two" unicode="2" horiz-adv-x="477" 
d="M447 0h-420v62l137 134q98 95 121 124q41 52 41 97q0 95 -112 95q-60 0 -85 -21t-25 -83l-85 9q0 51 17 86t48 51.5t62.5 23t72.5 6.5q198 0 198 -158q0 -87 -87 -179q-16 -17 -73 -71l-114 -108h208q13 0 15 11l15 85h66v-164z" />
    <glyph glyph-name="three" unicode="3" horiz-adv-x="488" 
d="M312 266v-4q132 -24 132 -155q0 -89 -58 -139.5t-163 -50.5q-69 0 -126 23.5t-90 62.5l54 58q66 -68 161 -68q129 0 129 116q0 114 -137 114q-33 0 -71 -7v70l58 6q66 6 100 38.5t34 84.5q0 97 -107 97q-59 0 -86 -22t-27 -82l-85 9q0 167 203 167q100 0 147 -43t47 -116
q0 -119 -115 -159z" />
    <glyph glyph-name="four" unicode="4" horiz-adv-x="514" 
d="M403 -67h-86v146h-292v66l230 432l74 -39l-206 -385h195v203l85 5v-208h91v-74h-91v-146z" />
    <glyph glyph-name="five" unicode="5" horiz-adv-x="512" 
d="M435 494h-278l-13 -195q55 38 129 38q92 0 144 -52t52 -147q0 -98 -60 -159.5t-167 -61.5q-147 0 -227 85l55 61q66 -69 169 -69q57 0 97 35t40 106q0 68 -36 98t-85 30q-65 0 -125 -48l-66 29l21 325h265q13 0 15 11l14 54l56 4v-144z" />
    <glyph glyph-name="six" unicode="6" horiz-adv-x="529" 
d="M478 501l-86 -10q0 50 -21 68.5t-69 18.5q-153 0 -160 -240q72 58 166 58q89 0 134 -50t45 -137q0 -102 -57 -161.5t-160 -59.5q-53 0 -92.5 18t-63.5 47.5t-38.5 73.5t-19.5 89t-5 101q0 57 11 109t37 105t79 85t128 32q172 0 172 -147zM145 266q6 -207 131 -207
q59 0 89.5 37t30.5 104q0 65 -24 96.5t-80 31.5q-71 0 -147 -62z" />
    <glyph glyph-name="seven" unicode="7" horiz-adv-x="496" 
d="M250 -67h-92q8 97 32.5 187.5t59 160.5t67.5 121t69 92h-245q-13 0 -15 -11l-18 -91l-63 -4v181h443v-65q-92 -92 -159.5 -247.5t-78.5 -323.5z" />
    <glyph glyph-name="eight" unicode="8" horiz-adv-x="509" 
d="M352 333q55 -32 86 -70.5t31 -96.5q0 -86 -62.5 -132t-161.5 -46q-94 0 -149.5 43t-55.5 123q0 99 120 185q-94 55 -94 148q0 76 55.5 118.5t138.5 42.5q90 0 140 -41.5t50 -107.5q0 -85 -98 -166zM226 306q-101 -73 -101 -146q0 -48 35.5 -75.5t95.5 -27.5q55 0 89 29
t34 74q0 23 -9.5 43t-20 32.5t-36 27.5t-39.5 21.5zM286 366q79 70 79 129q0 84 -107 84q-45 0 -74 -22t-29 -61q0 -24 9.5 -43t31 -35t39.5 -26t51 -26z" />
    <glyph glyph-name="nine" unicode="9" horiz-adv-x="553" 
d="M67 -18l45 64q62 -54 143 -54q145 0 150 230q-69 -59 -166 -59q-89 0 -135.5 53t-46.5 150q0 101 57 159.5t161 58.5q54 0 94 -18t64 -47t38.5 -73t19.5 -88.5t5 -100.5q0 -340 -239 -340q-122 0 -190 65zM401 297q-2 35 -4 56.5t-10 55.5t-21 54t-38 35t-60 15
q-59 0 -89.5 -37t-30.5 -104q0 -140 106 -140q80 0 147 65z" />
    <glyph glyph-name="colon" unicode=":" horiz-adv-x="212" 
d="M172 51q0 -63 -66 -63t-66 63t66 63t66 -63zM172 445q0 -63 -66 -63t-66 63t66 63t66 -63z" />
    <glyph glyph-name="semicolon" unicode=";" horiz-adv-x="185" 
d="M87 -118l-47 17l30 105q1 7 -5 10l-35 14l22 83q55 -2 82 -14.5t27 -49.5q0 -19 -16 -53zM168 445q0 -63 -66 -63t-66 63t66 63t66 -63z" />
    <glyph glyph-name="less" unicode="&#x3c;" 
d="M461 94l-378 145v100l372 154l27 -76l-316 -125l319 -121z" />
    <glyph glyph-name="equal" unicode="=" 
d="M472 159h-374v83h374v-83zM472 321h-374v83h374v-83z" />
    <glyph glyph-name="greater" unicode="&#x3e;" 
d="M484 239l-377 -145l-24 77l319 121l-316 125l27 76l371 -154v-100z" />
    <glyph glyph-name="question" unicode="?" horiz-adv-x="475" 
d="M230 186h-91v177q43 4 76.5 12.5t65 26.5t48.5 50.5t17 77.5q0 55 -33 86t-94 31q-60 0 -86 -15q-7 -4 -11 -22l-10 -57l-71 -5v140q91 36 182 36q105 0 163.5 -44t58.5 -149q0 -192 -215 -228v-117zM251 51q0 -63 -66 -63t-66 63t66 63t66 -63z" />
    <glyph glyph-name="at" unicode="@" horiz-adv-x="829" 
d="M591 54l19 -62q-75 -35 -199 -35q-165 0 -262 91t-97 264q0 174 107.5 282.5t280.5 108.5q156 0 247.5 -83.5t91.5 -233.5q0 -136 -53 -199.5t-142 -63.5q-91 0 -104 74q-37 -36 -68 -55t-66 -19q-53 0 -80.5 35.5t-27.5 102.5q0 114 59 192.5t157 78.5q69 0 133 -32
l-27 -168q-11 -66 -11 -95q0 -51 46 -51q40 0 65.5 32.5t34.5 72t9 82.5q0 129 -67.5 196.5t-201.5 67.5q-141 0 -223.5 -92t-82.5 -231q0 -146 77 -218.5t214 -72.5q86 0 171 31zM476 264l32 195q-23 14 -63 14q-54 0 -92 -58t-38 -142q0 -41 10 -60.5t36 -19.5t58.5 21.5
t56.5 49.5z" />
    <glyph glyph-name="A" unicode="A" horiz-adv-x="713" 
d="M705 0h-244v54l82 9l-54 158h-279l-53 -158l81 -9v-54h-230v53l43 11q20 5 25 19l220 641h116l224 -642q4 -12 24 -17l45 -11v-54zM467 294l-116 352l-118 -352h234z" />
    <glyph glyph-name="B" unicode="B" horiz-adv-x="667" 
d="M356 0h-295v54l63 7q10 1 13 5t3 15v561q0 12 -3 15.5t-13 4.5l-63 7v55h298q120 0 169 -47.5t49 -129.5q0 -66 -35 -108.5t-87 -59.5v-3q84 -10 126.5 -56.5t42.5 -123.5q0 -196 -268 -196zM231 73h114q90 0 136.5 26t46.5 103q0 69 -44.5 101t-118.5 32h-134v-262z
M231 405h88q166 0 166 130q0 66 -36 91t-115 25h-103v-246z" />
    <glyph glyph-name="C" unicode="C" horiz-adv-x="690" 
d="M630 192v-151q-80 -53 -240 -53q-175 0 -258.5 100t-83.5 274q0 169 92.5 272t266.5 103q139 0 221 -54v-160l-68 4l-17 95q-2 15 -13 18q-64 22 -127 22q-120 0 -189.5 -78t-69.5 -222t66.5 -221.5t185.5 -77.5q90 0 140 21q12 4 14 18l16 90h64z" />
    <glyph glyph-name="D" unicode="D" horiz-adv-x="767" 
d="M343 0h-282v54l63 7q10 1 13 5t3 15v561q0 12 -3 15.5t-13 4.5l-63 7v55h299q183 0 271 -91.5t88 -259.5q0 -173 -94 -273t-282 -100zM232 73h110q141 0 211.5 75t70.5 212q0 160 -68.5 226t-207.5 66h-116v-579z" />
    <glyph glyph-name="E" unicode="E" horiz-adv-x="635" 
d="M585 0h-524v54l63 7q10 1 13 5t3 15v561q0 12 -3 15.5t-13 4.5l-63 7v55h502v-165l-68 4l-14 77q-3 13 -17 13h-232v-252h267v-72h-267v-258h254q14 0 16 11l16 87h67v-169z" />
    <glyph glyph-name="F" unicode="F" horiz-adv-x="603" 
d="M395 0h-334v54l63 7q10 1 13 5t3 15v561q0 12 -3 15.5t-13 4.5l-63 7v55h498v-165l-68 4l-14 77q-3 13 -17 13h-228v-249h263v-72h-263v-250q0 -12 2.5 -15.5t13.5 -4.5l147 -8v-54z" />
    <glyph glyph-name="G" unicode="G" horiz-adv-x="738" 
d="M716 282l-42 -4q-16 -1 -16 -17v-232q-85 -41 -240 -41q-192 0 -281 102t-89 277q0 166 92.5 268t267.5 102q141 0 222 -54v-159l-68 5l-16 93q-3 15 -14 18q-62 22 -130 22q-120 0 -189 -78t-69 -217q0 -148 72.5 -226t213.5 -78q63 0 123 15q14 3 14 17v177h-136l11 65
h274v-55z" />
    <glyph glyph-name="H" unicode="H" horiz-adv-x="808" 
d="M751 0h-254v54l63 7q10 1 13 5t3 15v256h-344v-255q0 -12 2.5 -15.5t13.5 -4.5l67 -8v-54h-254v54l63 7q10 1 13 5t3 15v562q0 12 -3 15.5t-13 4.5l-63 7v54h254v-54l-67 -8q-11 -1 -13.5 -4.5t-2.5 -14.5v-234h344v234q0 12 -3 15.5t-13 4.5l-63 7v54h254v-54l-67 -8
q-11 -1 -13.5 -4.5t-2.5 -14.5v-561q0 -12 2.5 -15.5t13.5 -4.5l67 -8v-54z" />
    <glyph glyph-name="I" unicode="I" horiz-adv-x="382" 
d="M330 0h-274v54l73 7q10 1 13 4.5t3 15.5v562q0 12 -3 15.5t-13 4.5l-73 7v54h274v-54l-77 -8q-11 -1 -13.5 -4.5t-2.5 -14.5v-561q0 -12 2.5 -15.5t13.5 -4.5l77 -8v-54z" />
    <glyph glyph-name="J" unicode="J" horiz-adv-x="504" 
d="M291 153v491q0 11 -3 14.5t-13 4.5l-85 7v54h276v-54l-67 -8q-11 -1 -13.5 -4t-2.5 -14v-497q0 -82 -39.5 -120.5t-126.5 -38.5q-52 0 -98.5 11.5t-65.5 23.5v138l68 -4l10 -69q1 -9 12 -14q30 -12 69 -12q45 0 62 21.5t17 69.5z" />
    <glyph glyph-name="K" unicode="K" horiz-adv-x="735" 
d="M711 0h-260v54l69 8l-210 278l-78 -85v-173q0 -12 2.5 -15.5t13.5 -4.5l67 -8v-54h-254v54l63 7q10 1 13 5t3 15v562q0 12 -3 15.5t-13 4.5l-63 7v54h254v-54l-67 -8q-11 -1 -13.5 -4.5t-2.5 -14.5v-286l278 304l-62 8v55h225v-54l-51 -9q-19 -3 -30 -17l-217 -234
l246 -330q9 -13 29 -16l61 -10v-54z" />
    <glyph glyph-name="L" unicode="L" horiz-adv-x="619" 
d="M585 0h-524v54l63 7q10 1 13 5t3 15v561q0 12 -3 15.5t-13 4.5l-63 7v55h270v-55l-83 -8q-11 -1 -13.5 -4.5t-2.5 -14.5v-571h254q14 0 16 11l16 90h67v-172z" />
    <glyph glyph-name="M" unicode="M" horiz-adv-x="952" 
d="M895 0h-272v54l83 7q10 1 13 4.5t3 15.5v496l-201 -407h-97l-194 406v-494q0 -12 2.5 -15.5t13.5 -4.5l87 -8v-54h-272v54l63 7q10 1 13 5t3 15v561q0 12 -3 15.5t-13 4.5l-63 7v55h194l220 -475l228 475h192v-54l-67 -8q-11 -1 -13.5 -4.5t-2.5 -14.5v-562q0 -17 16 -19
l67 -8v-54z" />
    <glyph glyph-name="N" unicode="N" horiz-adv-x="828" 
d="M693 0h-107l-365 605v-523q0 -12 2.5 -15.5t13.5 -4.5l67 -8v-54h-243v54l63 7q10 1 13 5t3 15v562q0 12 -3 15.5t-13 4.5l-63 7v55h196l356 -601v519q0 12 -3 15.5t-13 4.5l-63 7v54h242v-54l-67 -8q-11 -1 -13.5 -4.5t-2.5 -14.5v-643z" />
    <glyph glyph-name="O" unicode="O" horiz-adv-x="777" 
d="M384 -12q-168 0 -251 102t-83 276q0 165 91 268t257 103q163 0 246 -100t83 -260q0 -181 -87.5 -285t-255.5 -104zM389 65q113 0 178 76t65 226q0 142 -62.5 217.5t-173.5 75.5q-113 0 -182 -77t-69 -217q0 -147 65.5 -224t178.5 -77z" />
    <glyph glyph-name="P" unicode="P" horiz-adv-x="651" 
d="M390 0h-329v54l63 7q10 1 13 5t3 15v561q0 12 -3 15.5t-13 4.5l-63 7v55h309q129 0 185 -58.5t56 -154.5q0 -238 -274 -238h-106v-191q0 -12 2.5 -15.5t13.5 -4.5l143 -8v-54zM231 346h98q89 0 138 33t49 128q0 77 -42.5 110.5t-131.5 33.5h-111v-305z" />
    <glyph glyph-name="Q" unicode="Q" horiz-adv-x="777" 
d="M563 -103l20 -61q-41 -23 -101 -23q-73 0 -104.5 31.5t-31.5 92.5q0 27 4 53q-150 10 -225 111t-75 265q0 165 91 268t257 103q163 0 246 -100t83 -260q0 -167 -74.5 -269t-216.5 -117q-3 -19 -3 -42q0 -32 14.5 -48.5t48.5 -16.5q37 0 67 13zM389 65q113 0 178 76
t65 226q0 142 -62.5 217.5t-172.5 75.5q-114 0 -183 -76.5t-69 -217.5q0 -147 65.5 -224t178.5 -77z" />
    <glyph glyph-name="R" unicode="R" horiz-adv-x="680" 
d="M670 0h-257v54l79 6l-83 207q-10 24 -24 33t-44 9h-110v-227q0 -12 2.5 -15.5t13.5 -4.5l66 -8v-54h-252v54l63 7q10 1 13 5t3 15v561q0 12 -3 15.5t-13 4.5l-63 7v55h306q65 0 111 -16.5t70 -46t34.5 -62t10.5 -71.5q0 -145 -139 -195q16 -7 26.5 -18.5t15 -21.5
l14.5 -33l68 -175q7 -20 31 -23l61 -9v-53zM231 381h92q81 0 127.5 31.5t46.5 112.5q0 73 -45 99.5t-143 26.5h-78v-270z" />
    <glyph glyph-name="S" unicode="S" horiz-adv-x="584" 
d="M509 532l-69 6l-15 85q-4 17 -11 21q-30 17 -95 17q-76 0 -114.5 -30.5t-38.5 -85.5q0 -30 11 -51.5t36.5 -37t46 -23.5t58.5 -20l44 -13.5t41.5 -16t41 -21t33.5 -26t29 -35t16.5 -45t7.5 -57.5q0 -109 -74 -160t-191 -51q-62 0 -122 12.5t-88 25.5v164h67l19 -88
q2 -10 6 -14t14 -8q51 -17 112 -17q163 0 163 126q0 59 -37 87.5t-110 49.5q-98 29 -131 48q-87 50 -87 159q0 102 70 153t181 51q94 0 186 -35v-170z" />
    <glyph glyph-name="T" unicode="T" horiz-adv-x="660" 
d="M502 0h-337v55l103 7q10 1 13 4.5t3 15.5v571h-155q-14 0 -16 -11l-16 -87h-67v169h600v-169h-67l-16 87q-2 11 -16 11h-155v-571q0 -11 2.5 -14.5t13.5 -4.5l110 -8v-55z" />
    <glyph glyph-name="U" unicode="U" horiz-adv-x="788" 
d="M571 252v391q0 12 -3 15.5t-13 4.5l-63 7v54h248v-54l-67 -8q-11 -1 -13.5 -4.5t-2.5 -14.5v-401q0 -254 -267 -254q-137 0 -198 63.5t-61 192.5v399q0 12 -3 15.5t-13 4.5l-63 7v54h254v-54l-67 -8q-11 -1 -13.5 -4.5t-2.5 -14.5v-388q0 -100 42.5 -144.5t130.5 -44.5
q91 0 133 42t42 144z" />
    <glyph glyph-name="V" unicode="V" horiz-adv-x="693" 
d="M415 0h-124l-213 642q-4 12 -24 17l-45 11l10 54h234v-54l-82 -9l183 -582l187 582l-81 9l10 54h218v-54l-42 -11q-20 -5 -25 -19z" />
    <glyph glyph-name="W" unicode="W" horiz-adv-x="993" 
d="M749 0h-121l-126 464l-134 -464h-114l-166 641q-4 16 -20 19l-59 10l10 54h251v-54l-89 -10l134 -561l136 479h103l136 -487l141 569l-91 10l10 54h234v-54l-52 -9q-11 -2 -15 -5.5t-7 -14.5z" />
    <glyph glyph-name="X" unicode="X" horiz-adv-x="699" 
d="M680 0h-248v54l76 9l-167 246l-164 -246l73 -9v-54h-228v52l53 11q15 4 25 19l192 282l-188 278q-8 13 -24 17l-47 11l10 54h229v-54l-75 -9l153 -233l158 233l-74 9l10 54h208v-54l-44 -11q-14 -3 -25 -19l-183 -267l204 -291q8 -13 24 -17l52 -11v-54z" />
    <glyph glyph-name="Y" unicode="Y" horiz-adv-x="619" 
d="M478 0h-319v54l95 7q10 1 13 4.5t3 15.5v199l-200 362q-7 13 -24 17l-45 11l10 54h224v-54l-75 -9l159 -299l154 299l-74 9l10 54h209v-54l-42 -11q-17 -5 -25 -19l-189 -357v-201q0 -12 2.5 -15.5t13.5 -4.5l100 -8v-54z" />
    <glyph glyph-name="Z" unicode="Z" horiz-adv-x="644" 
d="M588 0h-538v61l416 592h-300q-14 0 -16 -11l-19 -93l-68 -3v178h515v-63l-413 -590h320q14 0 16 11l19 107h68v-189z" />
    <glyph glyph-name="bracketleft" unicode="[" horiz-adv-x="262" 
d="M231 -143h-169v867h169v-53l-67 -9q-10 -1 -13 -4.5t-3 -14.5v-703q0 -11 3 -15t13 -5l67 -9v-54z" />
    <glyph glyph-name="backslash" unicode="\" horiz-adv-x="377" 
d="M376 -92h-83l-280 847h82z" />
    <glyph glyph-name="bracketright" unicode="]" horiz-adv-x="262" 
d="M199 -143h-169v54l67 9q10 1 13 5t3 15v703q0 11 -3 14.5t-13 4.5l-67 9v53h169v-867z" />
    <glyph glyph-name="asciicircum" unicode="^" horiz-adv-x="550" 
d="M520 299h-90l-158 285l-155 -285h-87l197 365h93z" />
    <glyph glyph-name="underscore" unicode="_" horiz-adv-x="500" 
d="M500 -181h-500v68h500v-68z" />
    <glyph glyph-name="grave" unicode="`" horiz-adv-x="500" 
d="M350 604l-39 -37l-176 141l61 60z" />
    <glyph glyph-name="a" unicode="a" horiz-adv-x="541" 
d="M520 0h-140l-9 65l-3 1q-83 -78 -181 -78q-44 0 -74 13.5t-43.5 36.5t-18.5 43.5t-5 43.5q0 74 45 111.5t137 45.5l135 11v53q0 59 -19.5 84t-81.5 25q-28 0 -43 -1.5t-31.5 -8.5t-24 -23.5t-7.5 -43.5l-86 9q0 137 193 137q108 0 149 -37.5t41 -140.5v-265
q0 -12 2.5 -15.5t13.5 -4.5l51 -7v-54zM363 136v94l-113 -10q-63 -6 -86.5 -25.5t-23.5 -59.5t17 -58t53 -18q71 0 153 77z" />
    <glyph glyph-name="b" unicode="b" horiz-adv-x="595" 
d="M173 0h-89q12 74 12 143v519q0 17 -13 21l-59 19l9 53h154v-289q91 58 171 58q88 0 138.5 -60.5t50.5 -187.5q0 -148 -56 -218t-155 -70q-90 0 -155 62l-3 -2zM187 392v-264q69 -65 137 -65q131 0 131 205q0 93 -32.5 136.5t-88.5 43.5q-69 0 -147 -56z" />
    <glyph glyph-name="c" unicode="c" horiz-adv-x="486" 
d="M426 96l29 -66q-64 -42 -171 -42q-124 0 -184 69.5t-60 193.5q0 137 71 205t191 68q90 0 152 -31v-133l-67 3l-12 66q-1 11 -12 14q-25 9 -68 9q-72 0 -116 -47t-44 -148q0 -194 163 -194q74 0 128 33z" />
    <glyph glyph-name="d" unicode="d" horiz-adv-x="594" 
d="M566 0h-141l-8 66l-4 1q-83 -79 -176 -79q-189 0 -189 258q0 141 57 209.5t152 68.5q86 0 153 -48v187q0 16 -13 20l-60 19l9 53h153v-674q0 -12 2.5 -15.5t13.5 -4.5l51 -7v-54zM408 147v248q-65 54 -137 54q-131 0 -131 -201q0 -184 117 -184q68 0 151 83z" />
    <glyph glyph-name="e" unicode="e" horiz-adv-x="511" 
d="M433 101l29 -68q-80 -45 -182 -45q-128 0 -184 73t-56 195q0 131 64 199.5t164 68.5q206 0 206 -239q0 -16 -2 -50h-336q5 -170 153 -170q71 0 144 36zM137 304h246q-3 147 -115 147q-120 0 -131 -147z" />
    <glyph glyph-name="f" unicode="f" horiz-adv-x="406" 
d="M344 0h-304v55l64 6q10 1 13 4.5t3 15.5v354q0 10 -8 10h-72v69h80v76q0 176 183 176q71 0 110.5 -25.5t39.5 -93.5l-85 -12q0 38 -16 50.5t-53 12.5q-52 0 -70 -25.5t-18 -79.5v-69q0 -10 8 -10h164v-69h-172v-362q0 -12 2.5 -15.5t13.5 -4.5l117 -9v-54z" />
    <glyph glyph-name="g" unicode="g" horiz-adv-x="544" 
d="M535 450l-94 -7q37 -46 37 -104q0 -86 -58.5 -135t-149.5 -49q-54 0 -85 12l-45 -87l123 -7q64 -4 97.5 -7t71 -11.5t54 -22.5t27.5 -37.5t11 -58.5q0 -76 -65.5 -118.5t-193.5 -42.5q-124 0 -178.5 31.5t-54.5 91.5q0 33 14.5 56.5t46.5 56.5q-44 14 -44 54q0 22 22 55
q9 13 29 39t26 33q-75 41 -75 142q0 85 58 137.5t159 52.5q54 0 89 -10h178v-64zM389 343q0 51 -31.5 79.5t-87.5 28.5q-57 0 -91 -29t-34 -85q0 -48 30 -77.5t92 -29.5q56 0 89 30.5t33 82.5zM327 -14l-161 9q-44 -46 -44 -83q0 -38 37 -52t117 -15q155 0 155 84
q0 32 -23 42t-81 15z" />
    <glyph glyph-name="h" unicode="h" horiz-adv-x="630" 
d="M605 0h-230v55l48 6q18 1 18 20v233q0 64 -17.5 98.5t-66.5 34.5q-76 0 -158 -65v-301q0 -12 2.5 -15.5t13.5 -4.5l56 -7v-54h-229v55l50 6q10 1 13 5t3 15v581q0 17 -13 21l-60 19l9 53h154v-297q92 66 180 66q154 0 154 -182v-261q0 -12 2.5 -15.5t13.5 -4.5l57 -7v-54
z" />
    <glyph glyph-name="i" unicode="i" horiz-adv-x="297" 
d="M204 689q0 -64 -64 -64q-31 0 -48 16.5t-17 47.5q0 30 17 46.5t48 16.5t47.5 -16.5t16.5 -46.5zM279 0h-253v55l66 6q10 1 13 4.5t3 15.5v340q0 17 -13 21l-57 19l9 53h152v-433q0 -12 2.5 -15.5t13.5 -4.5l64 -7v-54z" />
    <glyph glyph-name="j" unicode="j" horiz-adv-x="284" 
d="M106 -47v468q0 17 -13 21l-64 19l9 53h159v-579q0 -80 -35.5 -119t-108.5 -39q-43 0 -81.5 12.5t-58.5 29.5l36 59q38 -29 90 -29q38 0 52.5 24t14.5 80zM204 689q0 -31 -17 -47.5t-48 -16.5q-30 0 -47 16.5t-17 47.5q0 30 17 46.5t47 16.5q31 0 48 -16.5t17 -46.5z" />
    <glyph glyph-name="k" unicode="k" horiz-adv-x="591" 
d="M582 0h-237v54l63 8l-125 207l-84 -94v-94q0 -12 2.5 -15.5t13.5 -4.5l60 -7v-54h-245v55l62 6q10 1 13 4.5t3 15.5v581q0 17 -13 21l-60 19l9 53h155v-481l212 240h111v-54l-57 -12q-14 -2 -25 -15l-91 -102l152 -252q8 -12 29 -16l52 -9v-54z" />
    <glyph glyph-name="l" unicode="l" horiz-adv-x="297" 
d="M275 0h-245v55l62 6q10 1 13 4.5t3 15.5v581q0 17 -13 21l-60 19l9 53h155v-674q0 -12 2.5 -15.5t13.5 -4.5l60 -7v-54z" />
    <glyph glyph-name="m" unicode="m" horiz-adv-x="912" 
d="M887 0h-230v55l48 6q18 1 18 20v241q0 123 -85 123q-63 0 -132 -49q3 -27 3 -61v-254q0 -12 2.5 -15.5t13.5 -4.5l49 -7v-54h-222v55l48 6q18 1 18 20v242q0 27 -2 44t-9 37.5t-23 30.5t-42 10q-67 0 -143 -62v-302q0 -12 2.5 -15.5t13.5 -4.5l54 -7v-54h-227v55l50 6
q10 1 13 5t3 15v340q0 17 -13 21l-57 19l9 53h131l8 -59l3 -1q45 35 85 52.5t92 17.5q89 0 123 -64q88 64 177 64q82 0 115 -46.5t33 -139.5v-257q0 -12 2.5 -15.5t13.5 -4.5l57 -7v-54z" />
    <glyph glyph-name="n" unicode="n" horiz-adv-x="630" 
d="M605 0h-230v55l48 6q18 1 18 20v237q0 58 -18 93t-69 35q-77 0 -155 -64v-301q0 -12 2.5 -15.5t13.5 -4.5l56 -7v-54h-229v55l50 6q10 1 13 5t3 15v340q0 17 -13 21l-57 19l9 53h131l8 -59l3 -1q98 70 185 70q158 0 158 -183v-260q0 -12 2.5 -15.5t13.5 -4.5l57 -7v-54z
" />
    <glyph glyph-name="o" unicode="o" horiz-adv-x="568" 
d="M281 -12q-125 0 -183 72.5t-58 198.5q0 122 63.5 193.5t187.5 71.5q122 0 179.5 -69.5t57.5 -189.5q0 -131 -61.5 -204t-185.5 -73zM284 61q150 0 150 198q0 97 -36 143t-109 46q-155 0 -155 -190q0 -197 150 -197z" />
    <glyph glyph-name="p" unicode="p" horiz-adv-x="605" 
d="M307 -212h-258v55l41 6q11 2 14 5.5t3 14.5v552q0 17 -13 21l-57 19l9 53h132l9 -58l3 -1q93 69 179 69q88 0 138 -60.5t50 -187.5q0 -59 -11 -108.5t-34 -91t-64.5 -65t-98.5 -23.5q-89 0 -152 55v-173q0 -12 2.5 -15.5t13.5 -4.5l94 -8v-54zM197 385v-257
q67 -65 137 -65q131 0 131 205q0 179 -115 179q-75 0 -153 -62z" />
    <glyph glyph-name="q" unicode="q" horiz-adv-x="583" 
d="M565 -212h-245v54l75 7q11 1 14 4.5t3 15.5v195l-3 1q-81 -77 -169 -77q-192 0 -192 257q0 140 57 209.5t150 69.5q88 0 156 -52l11 42h86q-10 -85 -10 -139v-506q0 -11 3 -15t13 -5l51 -6v-55zM407 152v243q-25 22 -62.5 38t-74.5 16q-130 0 -130 -200q0 -100 30 -142.5
t86 -42.5q73 0 151 88z" />
    <glyph glyph-name="r" unicode="r" horiz-adv-x="433" 
d="M307 0h-265v55l50 6q10 1 13 5t3 15v340q0 17 -13 21l-57 19l9 53h131l10 -69l3 -1q71 80 150 80q40 0 72 -9v-151l-71 3l-12 69q-1 10 -12 10q-53 0 -119 -63v-301q0 -12 2.5 -15.5t13.5 -4.5l92 -8v-54z" />
    <glyph glyph-name="s" unicode="s" horiz-adv-x="460" 
d="M410 367l-67 4l-12 62q-2 11 -10 13q-31 11 -78 11q-53 0 -79.5 -20.5t-26.5 -54.5q0 -16 7 -28.5t14.5 -19.5t27.5 -15t28.5 -10.5t36.5 -9.5q7 -2 11 -3q38 -10 60 -18t49.5 -24.5t40.5 -44t13 -65.5q0 -81 -57.5 -118.5t-145.5 -37.5q-55 0 -109.5 12t-71.5 22v133
l67 -4l12 -69q2 -10 12 -14q42 -16 98 -16q110 0 110 79q0 17 -7 31t-16.5 22t-28 15.5t-31.5 11t-38 9.5q-32 7 -48.5 11.5t-43 16.5t-39.5 26t-24 38t-11 56q0 80 56.5 118t142.5 38q93 0 158 -28v-129z" />
    <glyph glyph-name="t" unicode="t" horiz-adv-x="412" 
d="M362 83l22 -64q-78 -31 -139 -31q-139 0 -139 135v312q0 10 -8 10h-73v58q58 7 80.5 36.5t32.5 106.5h59v-122q0 -10 8 -10h147v-69h-155v-295q0 -48 15 -67.5t57 -19.5q44 0 93 20z" />
    <glyph glyph-name="u" unicode="u" horiz-adv-x="627" 
d="M593 0h-141l-8 68l-2 1q-96 -81 -193 -81q-79 0 -111.5 45.5t-32.5 136.5v254q0 13 -2.5 17t-13.5 6l-52 13l8 54h151v-323q0 -69 16.5 -99t61.5 -30q85 0 161 87v276q0 12 -2.5 16t-13.5 6l-50 13l8 54h149v-432q0 -20 14 -21l53 -7v-54z" />
    <glyph glyph-name="v" unicode="v" horiz-adv-x="579" 
d="M345 0h-104l-169 433q-5 13 -21 17l-43 9l12 55h210v-55l-69 -8l135 -373l137 373l-67 8l11 55h194v-55l-33 -6q-20 -4 -25 -17z" />
    <glyph glyph-name="w" unicode="w" horiz-adv-x="840" 
d="M636 0h-107l-96 396l-110 -396h-110l-141 433q-4 13 -21 17l-43 9l12 55h201v-55l-64 -8l112 -359l115 407h105l97 -406l111 358l-65 8l11 55h189v-55l-36 -6q-12 -2 -17 -6t-8 -14z" />
    <glyph glyph-name="x" unicode="x" horiz-adv-x="574" 
d="M564 0h-237v54l62 9l-111 145l-115 -145l66 -9v-54h-218v54l53 10q11 2 24 16l142 177l-136 174q-12 13 -24 17l-44 11l10 55h210v-55l-62 -8l106 -136l110 136l-63 8l10 55h194v-55l-46 -10q-13 -4 -25 -19l-132 -163l145 -185q13 -16 26 -18l55 -10v-54z" />
    <glyph glyph-name="y" unicode="y" horiz-adv-x="582" 
d="M369 -212h-271v55l72 9q13 1 22 21l58 133l-180 426q-5 13 -21 17l-41 10l12 55h207v-55l-66 -8l133 -336l139 336l-68 8l11 55h198v-55l-34 -5q-19 -3 -25 -17l-243 -585l97 -10v-54z" />
    <glyph glyph-name="z" unicode="z" horiz-adv-x="488" 
d="M455 0h-416v54l299 393h-198q-9 0 -11 -13l-12 -63l-68 -4v147h400v-56l-297 -391h211q9 0 11 13l12 74l69 3v-157z" />
    <glyph glyph-name="braceleft" unicode="{" horiz-adv-x="290" 
d="M261 -89l-10 -58q-92 7 -129.5 33.5t-37.5 92.5q0 27 6.5 93t6.5 99q0 50 -22 68t-63 20v59q41 2 63 20t22 68q0 33 -6.5 101t-6.5 94q0 66 37.5 92.5t129.5 33.5l10 -58q-52 -11 -69 -23.5t-17 -48.5q0 -25 6.5 -91t6.5 -101q0 -53 -18 -78.5t-50 -38.5q32 -13 50 -38
t18 -78q0 -34 -6.5 -98.5t-6.5 -90.5q0 -36 17 -48.5t69 -23.5z" />
    <glyph glyph-name="bar" unicode="|" horiz-adv-x="280" 
d="M181 -143h-82v898h82v-898z" />
    <glyph glyph-name="braceright" unicode="}" horiz-adv-x="290" 
d="M39 -147l-10 58q52 11 69 23.5t17 48.5q0 26 -6.5 90.5t-6.5 98.5q0 53 18 78t50 38q-32 13 -50 38.5t-18 78.5q0 35 6.5 101t6.5 91q0 36 -17 48.5t-69 23.5l10 58q92 -7 129.5 -33.5t37.5 -92.5q0 -26 -6.5 -94t-6.5 -101q0 -50 22 -68t63 -20v-59q-41 -2 -63 -20
t-22 -68q0 -33 6.5 -99t6.5 -93q0 -66 -37.5 -92.5t-129.5 -33.5z" />
    <glyph glyph-name="asciitilde" unicode="~" horiz-adv-x="482" 
d="M412 425l54 -18q-13 -56 -34.5 -84t-64.5 -28q-38 0 -118 23t-108 23q-23 0 -38 -12t-33 -41l-51 23q21 51 47.5 78.5t68.5 27.5q39 0 115 -23t107 -23q23 0 33.5 12t21.5 42z" />
    <glyph glyph-name="exclamdown" unicode="&#xa1;" horiz-adv-x="262" 
d="M100 322h75l12 -371v-166h-101v166zM204 458q0 -63 -66 -63t-66 63t66 63t66 -63z" />
    <glyph glyph-name="cent" unicode="&#xa2;" horiz-adv-x="497" 
d="M320 103q38 3 54 8q9 3 10 15l12 65l63 3v-131q-57 -27 -139 -31v-99h-71v102q-194 26 -194 245q0 109 52 171t142 77v103h71v-99q78 -4 137 -31v-131l-63 3l-11 63q-3 13 -12 16q-22 7 -51 8v-357zM151 286q0 -147 98 -177v344q-98 -29 -98 -167z" />
    <glyph glyph-name="sterling" unicode="&#xa3;" horiz-adv-x="552" 
d="M501 0h-451l-13 59q53 41 64.5 82.5t11.5 141.5v14h-80v71h80v63q0 217 215 217q79 0 126 -31.5t47 -115.5l-84 -12q0 49 -20.5 66.5t-69.5 17.5q-63 0 -92.5 -35t-29.5 -112v-58h181v-71h-181q0 -65 -2.5 -94.5t-16.5 -66.5t-45 -68h263q13 0 15 11l16 85h66v-164z" />
    <glyph glyph-name="currency" unicode="&#xa4;" 
d="M566 66l-62 -59l-90 88q-52 -36 -130 -36q-80 0 -134 38l-90 -90l-57 59l93 93q-30 57 -30 124q0 58 32 117l-92 91l61 61l88 -87q55 41 135 41t135 -39l84 84l58 -59l-88 -88q29 -53 29 -117q0 -73 -35 -129zM289 136q60 0 93.5 41.5t33.5 105.5q0 68 -33 106t-97 38
q-61 0 -94 -39.5t-33 -104.5q0 -66 32 -106.5t98 -40.5z" />
    <glyph glyph-name="yen" unicode="&#xa5;" horiz-adv-x="532" 
d="M450 294h-133v-57h133v-62h-133v-93q0 -12 2.5 -15.5t13.5 -4.5l99 -8v-54h-318v54l89 7q15 1 18.5 5.5t3.5 15.5v93h-132v62h132v57h-132v62h93l-128 189q-10 15 -25 19l-45 11l10 54h218v-54l-71 -9l128 -201l128 201l-70 9l10 54h203v-54l-42 -11q-15 -4 -25 -19
l-124 -189h97v-62z" />
    <glyph glyph-name="brokenbar" unicode="&#xa6;" horiz-adv-x="280" 
d="M181 -143h-82v388h82v-388zM181 408h-82v347h82v-347z" />
    <glyph glyph-name="section" unicode="&#xa7;" horiz-adv-x="548" 
d="M80 -108v127l67 -4l12 -64q2 -10 11 -13q42 -16 93 -16q100 0 100 80q0 21 -9.5 36t-28 24.5t-38 16t-46.5 13.5q-11 3 -16 4q-34 9 -55.5 17.5t-45.5 24.5t-36 41t-12 60q0 81 74 134q-50 38 -50 105q0 75 54 112.5t137 37.5q93 0 158 -28v-129l-67 4l-11 63
q-1 10 -13 14q-28 10 -75 10q-51 0 -75 -21t-24 -55q0 -16 8 -29t16.5 -20.5t30 -16t32.5 -11.5l40 -11q38 -10 59.5 -18.5t48.5 -25t40 -43.5t13 -65q0 -77 -74 -130q50 -36 50 -98q0 -84 -54 -122t-137 -38q-51 0 -106 12t-71 22zM211 343q-24 -15 -39 -39t-15 -47
q0 -35 24 -53t72 -32q45 -13 83 -26q53 32 53 92q0 32 -22.5 49.5t-64.5 29.5q-12 4 -44 12.5t-47 13.5z" />
    <glyph glyph-name="dieresis" unicode="&#xa8;" horiz-adv-x="500" 
d="M204 660q0 -25 -15.5 -40t-40.5 -15t-40.5 15t-15.5 40t15.5 40t40.5 15q26 0 41 -15t15 -40zM406 660q0 -25 -15.5 -40t-40.5 -15t-40.5 15t-15.5 40t15 40t41 15t41 -15t15 -40z" />
    <glyph glyph-name="copyright" unicode="&#xa9;" horiz-adv-x="762" 
d="M713 319q0 -149 -92 -240.5t-240 -91.5q-159 0 -245.5 88.5t-86.5 229.5q0 152 95.5 241.5t238.5 89.5q152 0 241 -86t89 -231zM383 38q126 0 199 74t73 201q0 129 -75 200.5t-197 71.5q-121 0 -197.5 -74.5t-76.5 -204.5q0 -125 73 -196.5t201 -71.5zM507 244v-100
q-40 -24 -114 -24q-97 0 -142.5 52.5t-45.5 142.5q0 88 49.5 141t141.5 53q59 0 112 -20v-105l-44 2l-9 49q-1 9 -9 13q-23 10 -58 10q-51 0 -82.5 -35t-31.5 -110q0 -64 29.5 -103.5t91.5 -39.5q35 0 52 11q6 4 9 15l12 48h39z" />
    <glyph glyph-name="ordfeminine" unicode="&#xaa;" horiz-adv-x="375" 
d="M358 281h-104l-6 38l-3 1q-54 -47 -117 -47q-95 0 -95 91q0 51 29.5 73.5t93.5 27.5l84 7v33q0 34 -11.5 48.5t-47.5 14.5q-22 0 -33.5 -2t-20 -13t-8.5 -32l-71 7q0 92 135 92q74 0 103 -24.5t29 -90.5v-165q0 -8 2 -10t9 -3l32 -5v-41zM240 371v53l-64 -6
q-38 -4 -52 -14t-14 -34q0 -39 43 -39q47 0 87 40z" />
    <glyph glyph-name="guillemotleft" unicode="&#xab;" horiz-adv-x="434" 
d="M226 103h-82l-87 156l89 149h82l-75 -137q-6 -10 -1 -19zM382 103h-82l-87 156l89 149h82l-75 -137q-6 -10 -1 -19z" />
    <glyph glyph-name="logicalnot" unicode="&#xac;" 
d="M471 191h-81v94h-296v81h377v-175z" />
    <glyph glyph-name="uni00AD" unicode="&#xad;" horiz-adv-x="311" 
d="M291 247h-271v89h271v-89z" />
    <glyph glyph-name="registered" unicode="&#xae;" horiz-adv-x="449" 
d="M409 480q0 -82 -51.5 -133t-133.5 -51q-88 0 -136 49.5t-48 127.5q0 84 53 134.5t132 50.5q84 0 134 -48.5t50 -129.5zM367 477q0 68 -39 105t-103 37q-62 0 -102 -39t-40 -106q0 -65 38 -102t104 -37t104 38t38 104zM321 384h-82v21l19 3l-21 40q-6 11 -20 11h-14v-46
q0 -5 4 -6l16 -2v-21h-80v21l14 2q7 1 7 6v132q0 7 -6 8l-15 2v20h88q65 0 65 -54q0 -39 -37 -52q8 -2 17 -19l20 -36q2 -5 8 -6l17 -3v-21zM203 489h13q41 0 41 30q0 26 -35 26h-19v-56z" />
    <glyph glyph-name="macron" unicode="&#xaf;" horiz-adv-x="500" 
d="M403 611h-307v69h307v-69z" />
    <glyph glyph-name="degree" unicode="&#xb0;" horiz-adv-x="301" 
d="M151 611q24 0 37 15t13 41q0 25 -13.5 39t-36.5 14t-37 -14.5t-14 -42.5q0 -24 13.5 -38t37.5 -14zM255 667q0 -49 -28.5 -77t-75.5 -28q-48 0 -76.5 27.5t-28.5 73.5q0 49 30 77.5t75 28.5q46 0 75 -27t29 -75z" />
    <glyph glyph-name="plusminus" unicode="&#xb1;" 
d="M473 0h-377v80h377v-80zM326 132h-83v149h-147v81h147v150h83v-150h147v-81h-147v-149z" />
    <glyph glyph-name="twosuperior" unicode="&#xb2;" horiz-adv-x="359" 
d="M335 350h-308v50l128 151l44.5 56.5t22.5 38t10 41.5q0 53 -66 53q-32 0 -46.5 -14t-14.5 -49l-72 8q0 115 140 115q142 0 142 -107q0 -40 -19.5 -74.5t-58.5 -80.5l-112 -133h132q7 0 10 7l9 52h59v-114z" />
    <glyph glyph-name="threesuperior" unicode="&#xb3;" horiz-adv-x="363" 
d="M243 586v-3q87 -19 87 -108q0 -63 -44.5 -98t-116.5 -35q-99 0 -154 58l45 51q45 -45 105 -45q81 0 81 73q0 70 -83 70q-23 0 -46 -4v58l36 4q85 9 85 76q0 57 -66 57q-32 0 -46.5 -14t-14.5 -48l-75 8q0 62 40.5 88t100.5 26q143 0 143 -109q0 -40 -21 -67t-56 -38z" />
    <glyph glyph-name="acute" unicode="&#xb4;" horiz-adv-x="500" 
d="M358 708l-176 -141l-39 37l155 164z" />
    <glyph glyph-name="mu" unicode="&#xb5;" horiz-adv-x="629" 
d="M589 0h-142l-8 66l-4 1q-44 -42 -77 -60.5t-73 -18.5q-67 0 -98 43h-3l9 -207h-93v690h91v-335q0 -57 18.5 -89t71.5 -32q69 0 150 91v365h91v-432q0 -20 13 -21l54 -7v-54z" />
    <glyph glyph-name="paragraph" unicode="&#xb6;" horiz-adv-x="562" 
d="M537 -133h-157v712h-83v-712h-153v54l67 8q13 1 13 16v225q-99 8 -154 68.5t-55 160.5q0 127 77 186.5t200 59.5h245v-54l-67 -8q-11 -1 -13.5 -4.5t-2.5 -14.5v-619q0 -7 1.5 -10t4.5 -4t10 -2l67 -8v-54z" />
    <glyph glyph-name="periodcentered" unicode="&#xb7;" horiz-adv-x="194" 
d="M163 308q0 -63 -66 -63t-66 63t66 63t66 -63z" />
    <glyph glyph-name="cedilla" unicode="&#xb8;" horiz-adv-x="500" 
d="M141 -232l6 52q15 -3 31 -3q73 0 73 54q0 44 -70 45l15 114l58 -8l-9 -66q32 -7 53 -27.5t21 -54.5q0 -45 -33 -77.5t-102 -32.5q-28 0 -43 4z" />
    <glyph glyph-name="onesuperior" unicode="&#xb9;" horiz-adv-x="261" 
d="M246 350h-221v47l59 6q7 1 8.5 3t1.5 10v302q0 11 -9 14l-60 11l6 47h147v-374q0 -8 1.5 -10t8.5 -3l58 -6v-47z" />
    <glyph glyph-name="ordmasculine" unicode="&#xba;" horiz-adv-x="393" 
d="M195 273q-85 0 -125.5 47t-40.5 128q0 79 43.5 125.5t128.5 46.5q84 0 123.5 -45t39.5 -122q0 -85 -42 -132.5t-127 -47.5zM197 326q88 0 88 122q0 117 -85 117q-93 0 -93 -117q0 -122 90 -122z" />
    <glyph glyph-name="guillemotright" unicode="&#xbb;" horiz-adv-x="433" 
d="M132 103h-82l74 142q6 10 1 19l-75 144h82l88 -153zM288 103h-82l74 142q6 10 1 19l-75 144h82l88 -153z" />
    <glyph glyph-name="onequarter" unicode="&#xbc;" horiz-adv-x="890" 
d="M291 281h-221v47l59 6q7 1 8.5 3t1.5 10v302q0 11 -9 14l-60 11l6 47h147v-374q0 -8 1.5 -10t8.5 -3l58 -6v-47zM301 -17h-85l358 741h84zM762 0h-77v84h-198v63l181 291h95v-290h56v-65h-57v-83zM685 148v200l-122 -200h122z" />
    <glyph glyph-name="onehalf" unicode="&#xbd;" horiz-adv-x="890" 
d="M287 281h-221v47l59 6q7 1 8.5 3t1.5 10v302q0 11 -9 14l-60 11l6 47h147v-374q0 -8 1.5 -10t8.5 -3l58 -6v-47zM271 -17h-85l358 741h84zM823 0h-308v50l128 151l44.5 56.5t22.5 38t10 41.5q0 53 -66 53q-32 0 -46.5 -14t-14.5 -49l-72 8q0 115 140 115q142 0 142 -107
q0 -40 -19.5 -74.5t-58.5 -80.5l-112 -133h132q7 0 10 7l9 52h59v-114z" />
    <glyph glyph-name="threequarters" unicode="&#xbe;" horiz-adv-x="890" 
d="M267 517v-3q87 -19 87 -108q0 -63 -44.5 -98t-116.5 -35q-99 0 -154 58l45 51q45 -45 105 -45q81 0 81 73q0 70 -83 70q-23 0 -46 -4v58l36 4q85 9 85 76q0 57 -66 57q-32 0 -46.5 -14t-14.5 -48l-75 8q0 62 40.5 88t100.5 26q143 0 143 -109q0 -40 -21 -67t-56 -38z
M335 -17h-85l358 741h84zM794 0h-77v84h-198v63l181 291h95v-290h56v-65h-57v-83zM717 148v200l-122 -200h122z" />
    <glyph glyph-name="questiondown" unicode="&#xbf;" horiz-adv-x="475" 
d="M255 323h91v-177q-43 -4 -76.5 -12.5t-65 -26.5t-48.5 -50.5t-17 -77.5q0 -55 33 -86t94 -31q60 0 86 15q7 4 11 22l10 57l71 5v-140q-91 -36 -182 -36q-105 0 -163.5 44t-58.5 149q0 192 215 228v117zM234 458q0 63 66 63t66 -63t-66 -63t-66 63z" />
    <glyph glyph-name="Agrave" unicode="&#xc0;" horiz-adv-x="713" 
d="M705 0h-244v54l82 9l-54 158h-279l-53 -158l81 -9v-54h-230v53l43 11q20 5 25 19l220 641h116l224 -642q4 -12 24 -17l45 -11v-54zM467 294l-116 352l-118 -352h234zM430 765l-204 102l46 73l188 -128z" />
    <glyph glyph-name="Aacute" unicode="&#xc1;" horiz-adv-x="713" 
d="M705 0h-244v54l82 9l-54 158h-279l-53 -158l81 -9v-54h-230v53l43 11q20 5 25 19l220 641h116l224 -642q4 -12 24 -17l45 -11v-54zM467 294l-116 352l-118 -352h234zM486 867l-204 -101l-29 46l188 129z" />
    <glyph glyph-name="Acircumflex" unicode="&#xc2;" horiz-adv-x="713" 
d="M705 0h-244v54l82 9l-54 158h-279l-53 -158l81 -9v-54h-230v53l43 11q20 5 25 19l220 641h116l224 -642q4 -12 24 -17l45 -11v-54zM467 294l-116 352l-118 -352h234zM473 766l-119 83l-119 -83l-40 41l117 102h84l117 -102z" />
    <glyph glyph-name="Atilde" unicode="&#xc3;" horiz-adv-x="713" 
d="M705 0h-244v54l82 9l-54 158h-279l-53 -158l81 -9v-54h-230v53l43 11q20 5 25 19l220 641h116l224 -642q4 -12 24 -17l45 -11v-54zM467 294l-116 352l-118 -352h234zM530 867l-23 -35q-33 -50 -64 -50q-19 0 -43 7q-20 5 -65.5 17.5t-57.5 15.5q-10 1 -16 -5l-39 -38
l-42 30l29 44q27 42 60 42q12 0 42 -7q115 -30 124 -32q9 -3 15 3l36 37z" />
    <glyph glyph-name="Adieresis" unicode="&#xc4;" horiz-adv-x="713" 
d="M705 0h-244v54l82 9l-54 158h-279l-53 -158l81 -9v-54h-230v53l43 11q20 5 25 19l220 641h116l224 -642q4 -12 24 -17l45 -11v-54zM467 294l-116 352l-118 -352h234zM309 837q0 -25 -15 -40t-41 -15q-25 0 -40.5 15t-15.5 40t15.5 39.5t40.5 14.5q26 0 41 -14.5t15 -39.5
zM511 837q0 -25 -15 -40t-41 -15t-41 15t-15 40t15 39.5t41 14.5t41 -14.5t15 -39.5z" />
    <glyph glyph-name="Aring" unicode="&#xc5;" horiz-adv-x="713" 
d="M446 794q0 -47 -33 -73l223 -639q4 -12 24 -17l45 -11v-54h-244v54l82 9l-54 158h-279l-53 -158l81 -9v-54h-230v53l43 11q20 5 25 19l218 637q-34 24 -34 72q0 43 26.5 68t66.5 25q41 0 67 -24t26 -67zM467 294l-116 352l-118 -352h234zM353 754q39 0 39 40q0 41 -39 41
t-39 -42q0 -39 39 -39z" />
    <glyph glyph-name="AE" unicode="&#xc6;" horiz-adv-x="997" 
d="M955 0h-522v54l66 6q13 1 13 17v244h-219l-141 -258l73 -9v-54h-217v54l37 9q17 4 24 11t19 29l302 558l-76 8v55h619v-165l-68 4l-14 77q-2 13 -13 13h-236v-261h267v-71h-267v-250h254q14 0 16 11l16 87h67v-169zM512 395v258h-41l-142 -258h183z" />
    <glyph glyph-name="Ccedilla" unicode="&#xc7;" horiz-adv-x="690" 
d="M297 -232l7 52q14 -3 30 -3q73 0 73 54q0 44 -70 45l10 74q-153 12 -226 110.5t-73 261.5q0 169 92.5 272t266.5 103q139 0 221 -54v-160l-68 4l-17 95q-2 15 -13 18q-64 22 -127 22q-120 0 -189.5 -78t-69.5 -222t66.5 -221.5t185.5 -77.5q90 0 140 21q12 4 14 18l16 90
h64v-151q-74 -50 -225 -53l-4 -32q32 -7 53 -27.5t21 -54.5q0 -45 -33 -77.5t-101 -32.5q-28 0 -44 4z" />
    <glyph glyph-name="Egrave" unicode="&#xc8;" horiz-adv-x="635" 
d="M585 0h-524v54l63 7q10 1 13 5t3 15v561q0 12 -3 15.5t-13 4.5l-63 7v55h502v-165l-68 4l-14 77q-3 13 -17 13h-232v-252h267v-72h-267v-258h254q14 0 16 11l16 87h67v-169zM396 765l-204 102l46 73l188 -128z" />
    <glyph glyph-name="Eacute" unicode="&#xc9;" horiz-adv-x="635" 
d="M585 0h-524v54l63 7q10 1 13 5t3 15v561q0 12 -3 15.5t-13 4.5l-63 7v55h502v-165l-68 4l-14 77q-3 13 -17 13h-232v-252h267v-72h-267v-258h254q14 0 16 11l16 87h67v-169zM452 867l-204 -101l-29 46l188 129z" />
    <glyph glyph-name="Ecircumflex" unicode="&#xca;" horiz-adv-x="635" 
d="M585 0h-524v54l63 7q10 1 13 5t3 15v561q0 12 -3 15.5t-13 4.5l-63 7v55h502v-165l-68 4l-14 77q-3 13 -17 13h-232v-252h267v-72h-267v-258h254q14 0 16 11l16 87h67v-169zM439 766l-119 83l-119 -83l-40 41l117 102h84l117 -102z" />
    <glyph glyph-name="Edieresis" unicode="&#xcb;" horiz-adv-x="635" 
d="M585 0h-524v54l63 7q10 1 13 5t3 15v561q0 12 -3 15.5t-13 4.5l-63 7v55h502v-165l-68 4l-14 77q-3 13 -17 13h-232v-252h267v-72h-267v-258h254q14 0 16 11l16 87h67v-169zM275 837q0 -25 -15 -40t-41 -15q-25 0 -40.5 15t-15.5 40t15.5 39.5t40.5 14.5q26 0 41 -14.5
t15 -39.5zM477 837q0 -25 -15 -40t-41 -15t-41 15t-15 40t15 39.5t41 14.5t41 -14.5t15 -39.5z" />
    <glyph glyph-name="Igrave" unicode="&#xcc;" horiz-adv-x="382" 
d="M330 0h-274v54l73 7q10 1 13 4.5t3 15.5v562q0 12 -3 15.5t-13 4.5l-73 7v54h274v-54l-77 -8q-11 -1 -13.5 -4.5t-2.5 -14.5v-561q0 -12 2.5 -15.5t13.5 -4.5l77 -8v-54zM269 765l-204 102l46 73l188 -128z" />
    <glyph glyph-name="Iacute" unicode="&#xcd;" horiz-adv-x="382" 
d="M330 0h-274v54l73 7q10 1 13 4.5t3 15.5v562q0 12 -3 15.5t-13 4.5l-73 7v54h274v-54l-77 -8q-11 -1 -13.5 -4.5t-2.5 -14.5v-561q0 -12 2.5 -15.5t13.5 -4.5l77 -8v-54zM325 867l-204 -101l-29 46l188 129z" />
    <glyph glyph-name="Icircumflex" unicode="&#xce;" horiz-adv-x="382" 
d="M330 0h-274v54l73 7q10 1 13 4.5t3 15.5v562q0 12 -3 15.5t-13 4.5l-73 7v54h274v-54l-77 -8q-11 -1 -13.5 -4.5t-2.5 -14.5v-561q0 -12 2.5 -15.5t13.5 -4.5l77 -8v-54zM312 766l-119 83l-119 -83l-40 41l117 102h84l117 -102z" />
    <glyph glyph-name="Idieresis" unicode="&#xcf;" horiz-adv-x="382" 
d="M330 0h-274v54l73 7q10 1 13 4.5t3 15.5v562q0 12 -3 15.5t-13 4.5l-73 7v54h274v-54l-77 -8q-11 -1 -13.5 -4.5t-2.5 -14.5v-561q0 -12 2.5 -15.5t13.5 -4.5l77 -8v-54zM148 837q0 -25 -15 -40t-41 -15q-25 0 -40.5 15t-15.5 40t15.5 39.5t40.5 14.5q26 0 41 -14.5
t15 -39.5zM350 837q0 -25 -15 -40t-41 -15t-41 15t-15 40t15 39.5t41 14.5t41 -14.5t15 -39.5z" />
    <glyph glyph-name="Eth" unicode="&#xd0;" horiz-adv-x="777" 
d="M353 0h-282v54l63 7q10 1 13 5t3 15v250h-75v72h75v239q0 12 -3 15.5t-13 4.5l-63 7v55h299q183 0 271 -91.5t88 -259.5q0 -173 -94 -273t-282 -100zM242 73h110q141 0 211.5 75t70.5 212q0 160 -68.5 226t-207.5 66h-116v-249h180v-72h-180v-258z" />
    <glyph glyph-name="Ntilde" unicode="&#xd1;" horiz-adv-x="828" 
d="M693 0h-107l-365 605v-523q0 -12 2.5 -15.5t13.5 -4.5l67 -8v-54h-243v54l63 7q10 1 13 5t3 15v562q0 12 -3 15.5t-13 4.5l-63 7v55h196l356 -601v519q0 12 -3 15.5t-13 4.5l-63 7v54h242v-54l-67 -8q-11 -1 -13.5 -4.5t-2.5 -14.5v-643zM607 867l-23 -35
q-33 -50 -64 -50q-19 0 -43 7q-20 5 -65.5 17.5t-57.5 15.5q-10 1 -16 -5l-39 -38l-42 30l29 44q27 42 60 42q12 0 42 -7q115 -30 124 -32q9 -3 15 3l36 37z" />
    <glyph glyph-name="Ograve" unicode="&#xd2;" horiz-adv-x="777" 
d="M384 -12q-168 0 -251 102t-83 276q0 165 91 268t257 103q163 0 246 -100t83 -260q0 -181 -87.5 -285t-255.5 -104zM389 65q113 0 178 76t65 226q0 142 -62.5 217.5t-173.5 75.5q-113 0 -182 -77t-69 -217q0 -147 65.5 -224t178.5 -77zM472 766l-204 102l46 73l188 -128z
" />
    <glyph glyph-name="Oacute" unicode="&#xd3;" horiz-adv-x="777" 
d="M384 -12q-168 0 -251 102t-83 276q0 165 91 268t257 103q163 0 246 -100t83 -260q0 -181 -87.5 -285t-255.5 -104zM389 65q113 0 178 76t65 226q0 142 -62.5 217.5t-173.5 75.5q-113 0 -182 -77t-69 -217q0 -147 65.5 -224t178.5 -77zM528 868l-204 -101l-29 46l188 129z
" />
    <glyph glyph-name="Ocircumflex" unicode="&#xd4;" horiz-adv-x="777" 
d="M384 -12q-168 0 -251 102t-83 276q0 165 91 268t257 103q163 0 246 -100t83 -260q0 -181 -87.5 -285t-255.5 -104zM389 65q113 0 178 76t65 226q0 142 -62.5 217.5t-173.5 75.5q-113 0 -182 -77t-69 -217q0 -147 65.5 -224t178.5 -77zM515 767l-119 83l-119 -83l-40 41
l117 102h84l117 -102z" />
    <glyph glyph-name="Otilde" unicode="&#xd5;" horiz-adv-x="777" 
d="M384 -12q-168 0 -251 102t-83 276q0 165 91 268t257 103q163 0 246 -100t83 -260q0 -181 -87.5 -285t-255.5 -104zM389 65q113 0 178 76t65 226q0 142 -62.5 217.5t-173.5 75.5q-113 0 -182 -77t-69 -217q0 -147 65.5 -224t178.5 -77zM572 868l-23 -35q-33 -50 -64 -50
q-19 0 -43 7q-20 5 -65.5 17.5t-57.5 15.5q-10 1 -16 -5l-39 -38l-42 30l29 44q27 42 60 42q12 0 42 -7q115 -30 124 -32q9 -3 15 3l36 37z" />
    <glyph glyph-name="Odieresis" unicode="&#xd6;" horiz-adv-x="777" 
d="M384 -12q-168 0 -251 102t-83 276q0 165 91 268t257 103q163 0 246 -100t83 -260q0 -181 -87.5 -285t-255.5 -104zM389 65q113 0 178 76t65 226q0 142 -62.5 217.5t-173.5 75.5q-113 0 -182 -77t-69 -217q0 -147 65.5 -224t178.5 -77zM351 838q0 -25 -15 -40t-41 -15
q-25 0 -40.5 15t-15.5 40t15.5 39.5t40.5 14.5q26 0 41 -14.5t15 -39.5zM553 838q0 -25 -15 -40t-41 -15t-41 15t-15 40t15 39.5t41 14.5t41 -14.5t15 -39.5z" />
    <glyph glyph-name="multiply" unicode="&#xd7;" 
d="M390 156l-106 106l-104 -106l-59 58l106 106l-106 107l59 59l104 -106l106 106l58 -59l-105 -107l105 -106z" />
    <glyph glyph-name="Oslash" unicode="&#xd8;" horiz-adv-x="777" 
d="M250 -78h-88l45 107q-157 89 -157 337q0 165 91 268t257 103q49 0 100 -12l27 64h87l-40 -94q77 -44 116 -127t39 -191q0 -181 -87.5 -285t-255.5 -104q-49 0 -102 12zM145 366q0 -179 96 -255l226 540q-33 9 -71 9q-113 0 -182 -77t-69 -217zM389 65q113 0 178 76
t65 226q0 173 -93 247l-225 -539q33 -10 75 -10z" />
    <glyph glyph-name="Ugrave" unicode="&#xd9;" horiz-adv-x="788" 
d="M571 252v391q0 12 -3 15.5t-13 4.5l-63 7v54h248v-54l-67 -8q-11 -1 -13.5 -4.5t-2.5 -14.5v-401q0 -254 -267 -254q-137 0 -198 63.5t-61 192.5v399q0 12 -3 15.5t-13 4.5l-63 7v54h254v-54l-67 -8q-11 -1 -13.5 -4.5t-2.5 -14.5v-388q0 -100 42.5 -144.5t130.5 -44.5
q91 0 133 42t42 144zM477 765l-204 102l46 73l188 -128z" />
    <glyph glyph-name="Uacute" unicode="&#xda;" horiz-adv-x="788" 
d="M571 252v391q0 12 -3 15.5t-13 4.5l-63 7v54h248v-54l-67 -8q-11 -1 -13.5 -4.5t-2.5 -14.5v-401q0 -254 -267 -254q-137 0 -198 63.5t-61 192.5v399q0 12 -3 15.5t-13 4.5l-63 7v54h254v-54l-67 -8q-11 -1 -13.5 -4.5t-2.5 -14.5v-388q0 -100 42.5 -144.5t130.5 -44.5
q91 0 133 42t42 144zM533 867l-204 -101l-29 46l188 129z" />
    <glyph glyph-name="Ucircumflex" unicode="&#xdb;" horiz-adv-x="788" 
d="M571 252v391q0 12 -3 15.5t-13 4.5l-63 7v54h248v-54l-67 -8q-11 -1 -13.5 -4.5t-2.5 -14.5v-401q0 -254 -267 -254q-137 0 -198 63.5t-61 192.5v399q0 12 -3 15.5t-13 4.5l-63 7v54h254v-54l-67 -8q-11 -1 -13.5 -4.5t-2.5 -14.5v-388q0 -100 42.5 -144.5t130.5 -44.5
q91 0 133 42t42 144zM520 766l-119 83l-119 -83l-40 41l117 102h84l117 -102z" />
    <glyph glyph-name="Udieresis" unicode="&#xdc;" horiz-adv-x="788" 
d="M571 252v391q0 12 -3 15.5t-13 4.5l-63 7v54h248v-54l-67 -8q-11 -1 -13.5 -4.5t-2.5 -14.5v-401q0 -254 -267 -254q-137 0 -198 63.5t-61 192.5v399q0 12 -3 15.5t-13 4.5l-63 7v54h254v-54l-67 -8q-11 -1 -13.5 -4.5t-2.5 -14.5v-388q0 -100 42.5 -144.5t130.5 -44.5
q91 0 133 42t42 144zM356 837q0 -25 -15 -40t-41 -15q-25 0 -40.5 15t-15.5 40t15.5 39.5t40.5 14.5q26 0 41 -14.5t15 -39.5zM558 837q0 -25 -15 -40t-41 -15t-41 15t-15 40t15 39.5t41 14.5t41 -14.5t15 -39.5z" />
    <glyph glyph-name="Yacute" unicode="&#xdd;" horiz-adv-x="619" 
d="M478 0h-319v54l95 7q10 1 13 4.5t3 15.5v199l-200 362q-7 13 -24 17l-45 11l10 54h224v-54l-75 -9l159 -299l154 299l-74 9l10 54h209v-54l-42 -11q-17 -5 -25 -19l-189 -357v-201q0 -12 2.5 -15.5t13.5 -4.5l100 -8v-54zM451 867l-204 -101l-29 46l188 129z" />
    <glyph glyph-name="Thorn" unicode="&#xde;" horiz-adv-x="659" 
d="M390 0h-329v54l63 7q10 1 13 5t3 15v561q0 12 -3 15.5t-13 4.5l-63 7v55h261v-54l-75 -8q-10 -1 -13 -5t-3 -15v-43h139q241 0 241 -202q0 -232 -274 -232h-106v-83q0 -12 2.5 -15.5t13.5 -4.5l143 -8v-54zM231 237h98q87 0 137 33.5t50 122.5q0 75 -42 104.5t-132 29.5
h-111v-290z" />
    <glyph glyph-name="germandbls" unicode="&#xdf;" horiz-adv-x="629" 
d="M196 0h-169v55l62 6q10 1 13 4.5t3 15.5v471q0 215 226 215q215 0 215 -181q0 -124 -110 -170v-4q79 -18 115.5 -62t36.5 -141t-53 -158.5t-146 -61.5q-89 0 -151 36l25 62q59 -28 116 -28q54 0 84 38t30 111q0 161 -142 161q-47 0 -73 -3v70l58 6q57 6 87 44t30 93
q0 61 -29.5 88.5t-94.5 27.5q-68 0 -100.5 -32t-32.5 -119v-544z" />
    <glyph glyph-name="agrave" unicode="&#xe0;" horiz-adv-x="541" 
d="M520 0h-140l-9 65l-3 1q-83 -78 -181 -78q-44 0 -74 13.5t-43.5 36.5t-18.5 43.5t-5 43.5q0 74 45 111.5t137 45.5l135 11v53q0 59 -19.5 84t-81.5 25q-28 0 -43 -1.5t-31.5 -8.5t-24 -23.5t-7.5 -43.5l-86 9q0 137 193 137q108 0 149 -37.5t41 -140.5v-265
q0 -12 2.5 -15.5t13.5 -4.5l51 -7v-54zM363 136v94l-113 -10q-63 -6 -86.5 -25.5t-23.5 -59.5t17 -58t53 -18q71 0 153 77zM356 604l-39 -37l-176 141l61 60z" />
    <glyph glyph-name="aacute" unicode="&#xe1;" horiz-adv-x="541" 
d="M520 0h-140l-9 65l-3 1q-83 -78 -181 -78q-44 0 -74 13.5t-43.5 36.5t-18.5 43.5t-5 43.5q0 74 45 111.5t137 45.5l135 11v53q0 59 -19.5 84t-81.5 25q-28 0 -43 -1.5t-31.5 -8.5t-24 -23.5t-7.5 -43.5l-86 9q0 137 193 137q108 0 149 -37.5t41 -140.5v-265
q0 -12 2.5 -15.5t13.5 -4.5l51 -7v-54zM363 136v94l-113 -10q-63 -6 -86.5 -25.5t-23.5 -59.5t17 -58t53 -18q71 0 153 77zM379 708l-176 -141l-39 37l155 164z" />
    <glyph glyph-name="acircumflex" unicode="&#xe2;" horiz-adv-x="541" 
d="M520 0h-140l-9 65l-3 1q-83 -78 -181 -78q-44 0 -74 13.5t-43.5 36.5t-18.5 43.5t-5 43.5q0 74 45 111.5t137 45.5l135 11v53q0 59 -19.5 84t-81.5 25q-28 0 -43 -1.5t-31.5 -8.5t-24 -23.5t-7.5 -43.5l-86 9q0 137 193 137q108 0 149 -37.5t41 -140.5v-265
q0 -12 2.5 -15.5t13.5 -4.5l51 -7v-54zM363 136v94l-113 -10q-63 -6 -86.5 -25.5t-23.5 -59.5t17 -58t53 -18q71 0 153 77zM432 610l-44 -38l-125 101l-125 -101l-44 38l127 123h84z" />
    <glyph glyph-name="atilde" unicode="&#xe3;" horiz-adv-x="541" 
d="M520 0h-140l-9 65l-3 1q-83 -78 -181 -78q-44 0 -74 13.5t-43.5 36.5t-18.5 43.5t-5 43.5q0 74 45 111.5t137 45.5l135 11v53q0 59 -19.5 84t-81.5 25q-28 0 -43 -1.5t-31.5 -8.5t-24 -23.5t-7.5 -43.5l-86 9q0 137 193 137q108 0 149 -37.5t41 -140.5v-265
q0 -12 2.5 -15.5t13.5 -4.5l51 -7v-54zM363 136v94l-113 -10q-63 -6 -86.5 -25.5t-23.5 -59.5t17 -58t53 -18q71 0 153 77zM439 673l-23 -35q-33 -50 -64 -50q-19 0 -43 7q-20 5 -65.5 17.5t-57.5 15.5q-10 1 -16 -5l-39 -38l-42 30l29 44q27 42 60 42q12 0 42 -7
q115 -30 124 -32q9 -3 15 3l36 37z" />
    <glyph glyph-name="adieresis" unicode="&#xe4;" horiz-adv-x="541" 
d="M520 0h-140l-9 65l-3 1q-83 -78 -181 -78q-44 0 -74 13.5t-43.5 36.5t-18.5 43.5t-5 43.5q0 74 45 111.5t137 45.5l135 11v53q0 59 -19.5 84t-81.5 25q-28 0 -43 -1.5t-31.5 -8.5t-24 -23.5t-7.5 -43.5l-86 9q0 137 193 137q108 0 149 -37.5t41 -140.5v-265
q0 -12 2.5 -15.5t13.5 -4.5l51 -7v-54zM363 136v94l-113 -10q-63 -6 -86.5 -25.5t-23.5 -59.5t17 -58t53 -18q71 0 153 77zM218 660q0 -25 -15.5 -40t-40.5 -15t-40.5 15t-15.5 40t15.5 40t40.5 15q26 0 41 -15t15 -40zM420 660q0 -25 -15.5 -40t-40.5 -15t-40.5 15
t-15.5 40t15 40t41 15t41 -15t15 -40z" />
    <glyph glyph-name="aring" unicode="&#xe5;" horiz-adv-x="541" 
d="M520 0h-140l-9 65l-3 1q-83 -78 -181 -78q-44 0 -74 13.5t-43.5 36.5t-18.5 43.5t-5 43.5q0 74 45 111.5t137 45.5l135 11v53q0 59 -19.5 84t-81.5 25q-28 0 -43 -1.5t-31.5 -8.5t-24 -23.5t-7.5 -43.5l-86 9q0 137 193 137q108 0 149 -37.5t41 -140.5v-265
q0 -12 2.5 -15.5t13.5 -4.5l51 -7v-54zM363 136v94l-113 -10q-63 -6 -86.5 -25.5t-23.5 -59.5t17 -58t53 -18q71 0 153 77zM350 671q0 -39 -24 -62.5t-63 -23.5t-63 22.5t-24 60.5q0 41 25 64t62 23q38 0 62.5 -22t24.5 -62zM263 632q36 0 36 39q0 37 -36 37q-37 0 -37 -39
q0 -37 37 -37z" />
    <glyph glyph-name="ae" unicode="&#xe6;" horiz-adv-x="830" 
d="M751 101l29 -68q-80 -45 -182 -45q-129 0 -187 85q-106 -85 -218 -85q-147 0 -147 137q0 74 45.5 112t136.5 46l135 11v52q0 59 -19.5 84t-81.5 25q-28 0 -43 -1.5t-31.5 -8.5t-24 -23.5t-7.5 -43.5l-86 9q0 137 190 137q69 0 108.5 -18t57.5 -59q60 77 164 77
q202 0 202 -236q0 -19 -2 -53h-337q2 -83 38.5 -126.5t115.5 -43.5q69 0 144 36zM363 230l-113 -9q-62 -5 -86 -25.5t-24 -61.5q0 -75 77 -75q39 0 86 23t77 53q-14 45 -17 95zM453 304h247q-1 147 -115 147q-55 0 -91 -34.5t-41 -112.5z" />
    <glyph glyph-name="ccedilla" unicode="&#xe7;" horiz-adv-x="486" 
d="M185 -232l6 52q15 -3 31 -3q73 0 73 54q0 44 -70 45l10 75q-99 13 -147 81t-48 179q0 137 71 205t191 68q90 0 152 -31v-133l-67 3l-12 66q-1 11 -12 14q-25 9 -68 9q-72 0 -116 -47t-44 -148q0 -194 163 -194q74 0 128 33l29 -66q-58 -39 -162 -42l-4 -32
q32 -7 53 -27.5t21 -54.5q0 -45 -33 -77.5t-102 -32.5q-28 0 -43 4z" />
    <glyph glyph-name="egrave" unicode="&#xe8;" horiz-adv-x="511" 
d="M433 101l29 -68q-80 -45 -182 -45q-128 0 -184 73t-56 195q0 131 64 199.5t164 68.5q206 0 206 -239q0 -16 -2 -50h-336q5 -170 153 -170q71 0 144 36zM137 304h246q-3 147 -115 147q-120 0 -131 -147zM359 604l-39 -37l-176 141l61 60z" />
    <glyph glyph-name="eacute" unicode="&#xe9;" horiz-adv-x="511" 
d="M433 101l29 -68q-80 -45 -182 -45q-128 0 -184 73t-56 195q0 131 64 199.5t164 68.5q206 0 206 -239q0 -16 -2 -50h-336q5 -170 153 -170q71 0 144 36zM137 304h246q-3 147 -115 147q-120 0 -131 -147zM382 708l-176 -141l-39 37l155 164z" />
    <glyph glyph-name="ecircumflex" unicode="&#xea;" horiz-adv-x="511" 
d="M433 101l29 -68q-80 -45 -182 -45q-128 0 -184 73t-56 195q0 131 64 199.5t164 68.5q206 0 206 -239q0 -16 -2 -50h-336q5 -170 153 -170q71 0 144 36zM137 304h246q-3 147 -115 147q-120 0 -131 -147zM435 610l-44 -38l-125 101l-125 -101l-44 38l127 123h84z" />
    <glyph glyph-name="edieresis" unicode="&#xeb;" horiz-adv-x="511" 
d="M433 101l29 -68q-80 -45 -182 -45q-128 0 -184 73t-56 195q0 131 64 199.5t164 68.5q206 0 206 -239q0 -16 -2 -50h-336q5 -170 153 -170q71 0 144 36zM137 304h246q-3 147 -115 147q-120 0 -131 -147zM221 660q0 -25 -15.5 -40t-40.5 -15t-40.5 15t-15.5 40t15.5 40
t40.5 15q26 0 41 -15t15 -40zM423 660q0 -25 -15.5 -40t-40.5 -15t-40.5 15t-15.5 40t15 40t41 15t41 -15t15 -40z" />
    <glyph glyph-name="igrave" unicode="&#xec;" horiz-adv-x="297" 
d="M279 0h-253v55l66 6q10 1 13 4.5t3 15.5v340q0 17 -13 21l-57 19l9 53h152v-433q0 -12 2.5 -15.5t13.5 -4.5l64 -7v-54zM234 596l-39 -37l-176 141l61 60z" />
    <glyph glyph-name="iacute" unicode="&#xed;" horiz-adv-x="297" 
d="M279 0h-253v55l66 6q10 1 13 4.5t3 15.5v340q0 17 -13 21l-57 19l9 53h152v-433q0 -12 2.5 -15.5t13.5 -4.5l64 -7v-54zM249 700l-176 -141l-39 37l155 164z" />
    <glyph glyph-name="icircumflex" unicode="&#xee;" horiz-adv-x="297" 
d="M290 610l-44 -38l-113 101l-113 -101l-44 38l115 123h84zM279 0h-253v55l66 6q10 1 13 4.5t3 15.5v340q0 17 -13 21l-57 19l9 53h152v-433q0 -12 2.5 -15.5t13.5 -4.5l64 -7v-54z" />
    <glyph glyph-name="idieresis" unicode="&#xef;" horiz-adv-x="297" 
d="M102 660q0 -25 -15.5 -40t-40.5 -15t-40.5 15t-15.5 40t15.5 40t40.5 15q26 0 41 -15t15 -40zM284 660q0 -25 -15.5 -40t-40.5 -15t-40.5 15t-15.5 40t15 40t41 15t41 -15t15 -40zM279 0h-253v55l66 6q10 1 13 4.5t3 15.5v340q0 17 -13 21l-57 19l9 53h152v-433
q0 -12 2.5 -15.5t13.5 -4.5l64 -7v-54z" />
    <glyph glyph-name="eth" unicode="&#xf0;" horiz-adv-x="559" 
d="M232 555l-37 60l73 41q-56 32 -129 42l30 69q106 -15 179 -65l104 59l36 -61l-83 -47q113 -120 113 -338q0 -49 -6.5 -93.5t-24 -88t-44.5 -75t-70.5 -51t-99.5 -19.5q-232 0 -232 262q0 109 60 180.5t170 71.5q83 0 142 -39q-30 92 -85 147zM135 252q0 -192 139 -192
q81 0 117.5 69.5t36.5 178.5q0 33 -3 66q-19 23 -59 39.5t-82 16.5q-74 0 -111.5 -46t-37.5 -132z" />
    <glyph glyph-name="ntilde" unicode="&#xf1;" horiz-adv-x="630" 
d="M605 0h-230v55l48 6q18 1 18 20v237q0 58 -18 93t-69 35q-77 0 -155 -64v-301q0 -12 2.5 -15.5t13.5 -4.5l56 -7v-54h-229v55l50 6q10 1 13 5t3 15v340q0 17 -13 21l-57 19l9 53h131l8 -59l3 -1q98 70 185 70q158 0 158 -183v-260q0 -12 2.5 -15.5t13.5 -4.5l57 -7v-54z
M482 673l-23 -35q-33 -50 -64 -50q-19 0 -43 7q-20 5 -65.5 17.5t-57.5 15.5q-10 1 -16 -5l-39 -38l-42 30l29 44q27 42 60 42q12 0 42 -7q115 -30 124 -32q9 -3 15 3l36 37z" />
    <glyph glyph-name="ograve" unicode="&#xf2;" horiz-adv-x="568" 
d="M281 -12q-125 0 -183 72.5t-58 198.5q0 122 63.5 193.5t187.5 71.5q122 0 179.5 -69.5t57.5 -189.5q0 -131 -61.5 -204t-185.5 -73zM284 61q150 0 150 198q0 97 -36 143t-109 46q-155 0 -155 -190q0 -197 150 -197zM384 604l-39 -37l-176 141l61 60z" />
    <glyph glyph-name="oacute" unicode="&#xf3;" horiz-adv-x="568" 
d="M281 -12q-125 0 -183 72.5t-58 198.5q0 122 63.5 193.5t187.5 71.5q122 0 179.5 -69.5t57.5 -189.5q0 -131 -61.5 -204t-185.5 -73zM284 61q150 0 150 198q0 97 -36 143t-109 46q-155 0 -155 -190q0 -197 150 -197zM407 708l-176 -141l-39 37l155 164z" />
    <glyph glyph-name="ocircumflex" unicode="&#xf4;" horiz-adv-x="568" 
d="M281 -12q-125 0 -183 72.5t-58 198.5q0 122 63.5 193.5t187.5 71.5q122 0 179.5 -69.5t57.5 -189.5q0 -131 -61.5 -204t-185.5 -73zM284 61q150 0 150 198q0 97 -36 143t-109 46q-155 0 -155 -190q0 -197 150 -197zM460 610l-44 -38l-125 101l-125 -101l-44 38l127 123
h84z" />
    <glyph glyph-name="otilde" unicode="&#xf5;" horiz-adv-x="568" 
d="M281 -12q-125 0 -183 72.5t-58 198.5q0 122 63.5 193.5t187.5 71.5q122 0 179.5 -69.5t57.5 -189.5q0 -131 -61.5 -204t-185.5 -73zM284 61q150 0 150 198q0 97 -36 143t-109 46q-155 0 -155 -190q0 -197 150 -197zM467 673l-23 -35q-33 -50 -64 -50q-19 0 -43 7
q-20 5 -65.5 17.5t-57.5 15.5q-10 1 -16 -5l-39 -38l-42 30l29 44q27 42 60 42q12 0 42 -7q115 -30 124 -32q9 -3 15 3l36 37z" />
    <glyph glyph-name="odieresis" unicode="&#xf6;" horiz-adv-x="568" 
d="M281 -12q-125 0 -183 72.5t-58 198.5q0 122 63.5 193.5t187.5 71.5q122 0 179.5 -69.5t57.5 -189.5q0 -131 -61.5 -204t-185.5 -73zM284 61q150 0 150 198q0 97 -36 143t-109 46q-155 0 -155 -190q0 -197 150 -197zM246 660q0 -25 -15.5 -40t-40.5 -15t-40.5 15t-15.5 40
t15.5 40t40.5 15q26 0 41 -15t15 -40zM448 660q0 -25 -15.5 -40t-40.5 -15t-40.5 15t-15.5 40t15 40t41 15t41 -15t15 -40z" />
    <glyph glyph-name="divide" unicode="&#xf7;" 
d="M343 167q0 -62 -64 -62t-64 62q0 61 64 61t64 -61zM473 281h-377v80h377v-80zM343 473q0 -62 -64 -62t-64 62q0 61 64 61t64 -61z" />
    <glyph glyph-name="oslash" unicode="&#xf8;" horiz-adv-x="568" 
d="M176 -92h-87l51 116q-100 64 -100 235q0 122 63.5 193.5t187.5 71.5q40 0 68 -7l30 67h86l-43 -97q96 -63 96 -222q0 -131 -61.5 -204t-185.5 -73q-32 0 -67 7zM134 258q0 -104 42 -154l151 340q-16 4 -38 4q-155 0 -155 -190zM284 61q150 0 150 198q0 99 -38 146
l-151 -340q16 -4 39 -4z" />
    <glyph glyph-name="ugrave" unicode="&#xf9;" horiz-adv-x="627" 
d="M593 0h-141l-8 68l-2 1q-96 -81 -193 -81q-79 0 -111.5 45.5t-32.5 136.5v254q0 13 -2.5 17t-13.5 6l-52 13l8 54h151v-323q0 -69 16.5 -99t61.5 -30q85 0 161 87v276q0 12 -2.5 16t-13.5 6l-50 13l8 54h149v-432q0 -20 14 -21l53 -7v-54zM396 604l-39 -37l-176 141
l61 60z" />
    <glyph glyph-name="uacute" unicode="&#xfa;" horiz-adv-x="627" 
d="M593 0h-141l-8 68l-2 1q-96 -81 -193 -81q-79 0 -111.5 45.5t-32.5 136.5v254q0 13 -2.5 17t-13.5 6l-52 13l8 54h151v-323q0 -69 16.5 -99t61.5 -30q85 0 161 87v276q0 12 -2.5 16t-13.5 6l-50 13l8 54h149v-432q0 -20 14 -21l53 -7v-54zM419 708l-176 -141l-39 37
l155 164z" />
    <glyph glyph-name="ucircumflex" unicode="&#xfb;" horiz-adv-x="627" 
d="M593 0h-141l-8 68l-2 1q-96 -81 -193 -81q-79 0 -111.5 45.5t-32.5 136.5v254q0 13 -2.5 17t-13.5 6l-52 13l8 54h151v-323q0 -69 16.5 -99t61.5 -30q85 0 161 87v276q0 12 -2.5 16t-13.5 6l-50 13l8 54h149v-432q0 -20 14 -21l53 -7v-54zM472 610l-44 -38l-125 101
l-125 -101l-44 38l127 123h84z" />
    <glyph glyph-name="udieresis" unicode="&#xfc;" horiz-adv-x="627" 
d="M593 0h-141l-8 68l-2 1q-96 -81 -193 -81q-79 0 -111.5 45.5t-32.5 136.5v254q0 13 -2.5 17t-13.5 6l-52 13l8 54h151v-323q0 -69 16.5 -99t61.5 -30q85 0 161 87v276q0 12 -2.5 16t-13.5 6l-50 13l8 54h149v-432q0 -20 14 -21l53 -7v-54zM258 660q0 -25 -15.5 -40
t-40.5 -15t-40.5 15t-15.5 40t15.5 40t40.5 15q26 0 41 -15t15 -40zM460 660q0 -25 -15.5 -40t-40.5 -15t-40.5 15t-15.5 40t15 40t41 15t41 -15t15 -40z" />
    <glyph glyph-name="yacute" unicode="&#xfd;" horiz-adv-x="582" 
d="M369 -212h-271v55l72 9q13 1 22 21l58 133l-180 426q-5 13 -21 17l-41 10l12 55h207v-55l-66 -8l133 -336l139 336l-68 8l11 55h198v-55l-34 -5q-19 -3 -25 -17l-243 -585l97 -10v-54zM409 708l-176 -141l-39 37l155 164z" />
    <glyph glyph-name="thorn" unicode="&#xfe;" horiz-adv-x="586" 
d="M294 -212h-258v55l41 6q10 1 13.5 5t3.5 15v793q0 17 -13 21l-57 19l9 53h151v-298l2 -1q96 68 171 68q89 0 138.5 -60.5t49.5 -187.5q0 -54 -10.5 -102.5t-33 -91.5t-64 -68.5t-97.5 -25.5q-90 0 -156 57v-175q0 -12 2.5 -15.5t13.5 -4.5l94 -8v-54zM185 385v-258
q68 -63 138 -63q129 0 129 204q0 179 -120 179q-72 0 -147 -62z" />
    <glyph glyph-name="ydieresis" unicode="&#xff;" horiz-adv-x="582" 
d="M369 -212h-271v55l72 9q13 1 22 21l58 133l-180 426q-5 13 -21 17l-41 10l12 55h207v-55l-66 -8l133 -336l139 336l-68 8l11 55h198v-55l-34 -5q-19 -3 -25 -17l-243 -585l97 -10v-54zM248 660q0 -25 -15.5 -40t-40.5 -15t-40.5 15t-15.5 40t15.5 40t40.5 15q26 0 41 -15
t15 -40zM450 660q0 -25 -15.5 -40t-40.5 -15t-40.5 15t-15.5 40t15 40t41 15t41 -15t15 -40z" />
    <glyph glyph-name="Amacron" unicode="&#x100;" horiz-adv-x="713" 
d="M705 0h-244v54l82 9l-54 158h-279l-53 -158l81 -9v-54h-230v53l43 11q20 5 25 19l220 641h116l224 -642q4 -12 24 -17l45 -11v-54zM467 294l-116 352l-118 -352h234zM508 794h-307v69h307v-69z" />
    <glyph glyph-name="amacron" unicode="&#x101;" horiz-adv-x="541" 
d="M520 0h-140l-9 65l-3 1q-83 -78 -181 -78q-44 0 -74 13.5t-43.5 36.5t-18.5 43.5t-5 43.5q0 74 45 111.5t137 45.5l135 11v53q0 59 -19.5 84t-81.5 25q-28 0 -43 -1.5t-31.5 -8.5t-24 -23.5t-7.5 -43.5l-86 9q0 137 193 137q108 0 149 -37.5t41 -140.5v-265
q0 -12 2.5 -15.5t13.5 -4.5l51 -7v-54zM363 136v94l-113 -10q-63 -6 -86.5 -25.5t-23.5 -59.5t17 -58t53 -18q71 0 153 77zM417 611h-307v69h307v-69z" />
    <glyph glyph-name="Abreve" unicode="&#x102;" horiz-adv-x="713" 
d="M705 0h-244v54l82 9l-54 158h-279l-53 -158l81 -9v-54h-230v53l43 11q20 5 25 19l220 641h116l224 -642q4 -12 24 -17l45 -11v-54zM467 294l-116 352l-118 -352h234zM454 920l55 -21q-31 -117 -159 -117q-120 0 -151 117l60 22q27 -74 95 -74q35 0 60 15t40 58z" />
    <glyph glyph-name="abreve" unicode="&#x103;" horiz-adv-x="541" 
d="M520 0h-140l-9 65l-3 1q-83 -78 -181 -78q-44 0 -74 13.5t-43.5 36.5t-18.5 43.5t-5 43.5q0 74 45 111.5t137 45.5l135 11v53q0 59 -19.5 84t-81.5 25q-28 0 -43 -1.5t-31.5 -8.5t-24 -23.5t-7.5 -43.5l-86 9q0 137 193 137q108 0 149 -37.5t41 -140.5v-265
q0 -12 2.5 -15.5t13.5 -4.5l51 -7v-54zM363 136v94l-113 -10q-63 -6 -86.5 -25.5t-23.5 -59.5t17 -58t53 -18q71 0 153 77zM374 728l56 -22q-35 -133 -169 -133q-130 0 -165 133l60 21q16 -47 41 -68t67 -21t67.5 21.5t42.5 68.5z" />
    <glyph glyph-name="Aogonek" unicode="&#x104;" horiz-adv-x="713" 
d="M625 -140l21 -56q-47 -22 -93 -22q-43 0 -67 20t-24 59q0 68 88 139h-89v54l82 9l-54 158h-279l-53 -158l81 -9v-54h-230v53l43 11q20 5 25 19l220 641h116l224 -642q4 -12 24 -17l45 -11v-54h-76q-84 -69 -84 -120q0 -32 31 -32q20 0 49 12zM467 294l-116 352l-118 -352
h234z" />
    <glyph glyph-name="aogonek" unicode="&#x105;" horiz-adv-x="541" 
d="M520 0q-103 -64 -103 -120q0 -32 31 -32q20 0 49 12l21 -56q-47 -22 -93 -22q-43 0 -67 20t-24 59q0 77 99 139h-53l-9 65l-3 1q-83 -78 -181 -78q-44 0 -74 13.5t-43.5 36.5t-18.5 43.5t-5 43.5q0 74 45 111.5t137 45.5l135 11v53q0 59 -19.5 84t-81.5 25
q-28 0 -43 -1.5t-31.5 -8.5t-24 -23.5t-7.5 -43.5l-86 9q0 137 193 137q108 0 149 -37.5t41 -140.5v-265q0 -12 2.5 -15.5t13.5 -4.5l51 -7v-54zM363 136v94l-113 -10q-63 -6 -86.5 -25.5t-23.5 -59.5t17 -58t53 -18q71 0 153 77z" />
    <glyph glyph-name="Cacute" unicode="&#x106;" horiz-adv-x="690" 
d="M630 192v-151q-80 -53 -240 -53q-175 0 -258.5 100t-83.5 274q0 169 92.5 272t266.5 103q139 0 221 -54v-160l-68 4l-17 95q-2 15 -13 18q-64 22 -127 22q-120 0 -189.5 -78t-69.5 -222t66.5 -221.5t185.5 -77.5q90 0 140 21q12 4 14 18l16 90h64zM527 867l-204 -101
l-29 46l188 129z" />
    <glyph glyph-name="cacute" unicode="&#x107;" horiz-adv-x="486" 
d="M426 96l29 -66q-64 -42 -171 -42q-124 0 -184 69.5t-60 193.5q0 137 71 205t191 68q90 0 152 -31v-133l-67 3l-12 66q-1 11 -12 14q-25 9 -68 9q-72 0 -116 -47t-44 -148q0 -194 163 -194q74 0 128 33zM400 708l-176 -141l-39 37l155 164z" />
    <glyph glyph-name="Ccircumflex" unicode="&#x108;" horiz-adv-x="690" 
d="M630 192v-151q-80 -53 -240 -53q-175 0 -258.5 100t-83.5 274q0 169 92.5 272t266.5 103q139 0 221 -54v-160l-68 4l-17 95q-2 15 -13 18q-64 22 -127 22q-120 0 -189.5 -78t-69.5 -222t66.5 -221.5t185.5 -77.5q90 0 140 21q12 4 14 18l16 90h64zM514 766l-119 83
l-119 -83l-40 41l117 102h84l117 -102z" />
    <glyph glyph-name="ccircumflex" unicode="&#x109;" horiz-adv-x="486" 
d="M426 96l29 -66q-64 -42 -171 -42q-124 0 -184 69.5t-60 193.5q0 137 71 205t191 68q90 0 152 -31v-133l-67 3l-12 66q-1 11 -12 14q-25 9 -68 9q-72 0 -116 -47t-44 -148q0 -194 163 -194q74 0 128 33zM453 610l-44 -38l-125 101l-125 -101l-44 38l127 123h84z" />
    <glyph glyph-name="Cdotaccent" unicode="&#x10a;" horiz-adv-x="690" 
d="M630 192v-151q-80 -53 -240 -53q-175 0 -258.5 100t-83.5 274q0 169 92.5 272t266.5 103q139 0 221 -54v-160l-68 4l-17 95q-2 15 -13 18q-64 22 -127 22q-120 0 -189.5 -78t-69.5 -222t66.5 -221.5t185.5 -77.5q90 0 140 21q12 4 14 18l16 90h64zM460 845
q0 -30 -17 -46.5t-48 -16.5t-47.5 16.5t-16.5 46.5q0 63 64 63q65 0 65 -63z" />
    <glyph glyph-name="cdotaccent" unicode="&#x10b;" horiz-adv-x="486" 
d="M426 96l29 -66q-64 -42 -171 -42q-124 0 -184 69.5t-60 193.5q0 137 71 205t191 68q90 0 152 -31v-133l-67 3l-12 66q-1 11 -12 14q-25 9 -68 9q-72 0 -116 -47t-44 -148q0 -194 163 -194q74 0 128 33zM349 690q0 -31 -17 -47.5t-48 -16.5q-64 0 -64 64q0 30 16.5 46.5
t47.5 16.5t48 -16.5t17 -46.5z" />
    <glyph glyph-name="Ccaron" unicode="&#x10c;" horiz-adv-x="690" 
d="M630 192v-151q-80 -53 -240 -53q-175 0 -258.5 100t-83.5 274q0 169 92.5 272t266.5 103q139 0 221 -54v-160l-68 4l-17 95q-2 15 -13 18q-64 22 -127 22q-120 0 -189.5 -78t-69.5 -222t66.5 -221.5t185.5 -77.5q90 0 140 21q12 4 14 18l16 90h64zM555 879l-118 -102h-84
l-117 102l40 41l119 -83l119 83z" />
    <glyph glyph-name="ccaron" unicode="&#x10d;" horiz-adv-x="486" 
d="M426 96l29 -66q-64 -42 -171 -42q-124 0 -184 69.5t-60 193.5q0 137 71 205t191 68q90 0 152 -31v-133l-67 3l-12 66q-1 11 -12 14q-25 9 -68 9q-72 0 -116 -47t-44 -148q0 -194 163 -194q74 0 128 33zM326 578h-84l-125 121l43 40l124 -101l126 101l44 -39z" />
    <glyph glyph-name="Dcaron" unicode="&#x10e;" horiz-adv-x="767" 
d="M343 0h-282v54l63 7q10 1 13 5t3 15v561q0 12 -3 15.5t-13 4.5l-63 7v55h299q183 0 271 -91.5t88 -259.5q0 -173 -94 -273t-282 -100zM232 73h110q141 0 211.5 75t70.5 212q0 160 -68.5 226t-207.5 66h-116v-579zM508 879l-118 -102h-84l-117 102l40 41l119 -83l119 83z
" />
    <glyph glyph-name="dcaron" unicode="&#x10f;" horiz-adv-x="641" 
d="M566 0h-141l-8 66l-4 1q-83 -79 -176 -79q-189 0 -189 258q0 141 57 209.5t152 68.5q86 0 153 -48v187q0 16 -13 20l-60 19l9 53h153v-674q0 -12 2.5 -15.5t13.5 -4.5l51 -7v-54zM408 147v248q-65 54 -137 54q-131 0 -131 -201q0 -184 117 -184q68 0 151 83zM599 564
l-46 14q19 63 19 103q0 36 -14 64l69 30q24 -27 24 -55q0 -21 -8 -46q-14 -48 -44 -110z" />
    <glyph glyph-name="Dcroat" unicode="&#x110;" horiz-adv-x="777" 
d="M353 0h-282v54l63 7q10 1 13 5t3 15v250h-75v72h75v239q0 12 -3 15.5t-13 4.5l-63 7v55h299q183 0 271 -91.5t88 -259.5q0 -173 -94 -273t-282 -100zM242 73h110q141 0 211.5 75t70.5 212q0 160 -68.5 226t-207.5 66h-116v-249h180v-72h-180v-258z" />
    <glyph glyph-name="dcroat" unicode="&#x111;" horiz-adv-x="594" 
d="M566 0h-141l-8 66l-4 1q-83 -79 -176 -79q-89 0 -139 60.5t-50 187.5q0 140 56 204t153 64q86 0 153 -48v110h-186v66h186v31q0 16 -13 20l-60 19l9 53h153v-123h66v-66h-66v-485q0 -12 2.5 -15.5t13.5 -4.5l51 -7v-54zM408 147v228q-65 54 -137 54q-131 0 -131 -191
q0 -95 30 -134.5t87 -39.5q68 0 151 83z" />
    <glyph glyph-name="Emacron" unicode="&#x112;" horiz-adv-x="635" 
d="M585 0h-524v54l63 7q10 1 13 5t3 15v561q0 12 -3 15.5t-13 4.5l-63 7v55h502v-165l-68 4l-14 77q-3 13 -17 13h-232v-252h267v-72h-267v-258h254q14 0 16 11l16 87h67v-169zM474 794h-307v69h307v-69z" />
    <glyph glyph-name="emacron" unicode="&#x113;" horiz-adv-x="511" 
d="M433 101l29 -68q-80 -45 -182 -45q-128 0 -184 73t-56 195q0 131 64 199.5t164 68.5q206 0 206 -239q0 -16 -2 -50h-336q5 -170 153 -170q71 0 144 36zM137 304h246q-3 147 -115 147q-120 0 -131 -147zM420 611h-307v69h307v-69z" />
    <glyph glyph-name="Ebreve" unicode="&#x114;" horiz-adv-x="635" 
d="M585 0h-524v54l63 7q10 1 13 5t3 15v561q0 12 -3 15.5t-13 4.5l-63 7v55h502v-165l-68 4l-14 77q-3 13 -17 13h-232v-252h267v-72h-267v-258h254q14 0 16 11l16 87h67v-169zM420 920l55 -21q-31 -117 -159 -117q-120 0 -151 117l60 22q27 -74 95 -74q35 0 60 15t40 58z
" />
    <glyph glyph-name="ebreve" unicode="&#x115;" horiz-adv-x="511" 
d="M433 101l29 -68q-80 -45 -182 -45q-128 0 -184 73t-56 195q0 131 64 199.5t164 68.5q206 0 206 -239q0 -16 -2 -50h-336q5 -170 153 -170q71 0 144 36zM137 304h246q-3 147 -115 147q-120 0 -131 -147zM377 728l56 -22q-35 -133 -169 -133q-130 0 -165 133l60 21
q16 -47 41 -68t67 -21t67.5 21.5t42.5 68.5z" />
    <glyph glyph-name="Edotaccent" unicode="&#x116;" horiz-adv-x="635" 
d="M585 0h-524v54l63 7q10 1 13 5t3 15v561q0 12 -3 15.5t-13 4.5l-63 7v55h502v-165l-68 4l-14 77q-3 13 -17 13h-232v-252h267v-72h-267v-258h254q14 0 16 11l16 87h67v-169zM385 845q0 -30 -17 -46.5t-48 -16.5t-47.5 16.5t-16.5 46.5q0 63 64 63q65 0 65 -63z" />
    <glyph glyph-name="edotaccent" unicode="&#x117;" horiz-adv-x="511" 
d="M433 101l29 -68q-80 -45 -182 -45q-128 0 -184 73t-56 195q0 131 64 199.5t164 68.5q206 0 206 -239q0 -16 -2 -50h-336q5 -170 153 -170q71 0 144 36zM137 304h246q-3 147 -115 147q-120 0 -131 -147zM331 690q0 -31 -17 -47.5t-48 -16.5q-64 0 -64 64q0 30 16.5 46.5
t47.5 16.5t48 -16.5t17 -46.5z" />
    <glyph glyph-name="Eogonek" unicode="&#x118;" horiz-adv-x="627" 
d="M585 0q-32 -20 -51 -34.5t-38.5 -38.5t-19.5 -47q0 -32 31 -32q20 0 49 12l21 -56q-47 -22 -93 -22q-43 0 -67 20t-24 59q0 76 97 139h-429v54l63 7q10 1 13 5t3 15v561q0 12 -3 15.5t-13 4.5l-63 7v55h502v-165l-68 4l-14 77q-3 13 -17 13h-232v-252h267v-72h-267v-258
h254q14 0 16 11l16 87h67v-169z" />
    <glyph glyph-name="eogonek" unicode="&#x119;" horiz-adv-x="511" 
d="M385 -140l21 -56q-47 -22 -93 -22q-43 0 -67 20t-24 59q0 62 74 128q-2 0 -8 -0.5t-8 -0.5q-128 0 -184 73t-56 195q0 131 64 199.5t164 68.5q206 0 206 -239q0 -16 -2 -50h-336q5 -170 153 -170q71 0 144 36l29 -68q-12 -7 -34.5 -18.5t-31.5 -16.5q-34 -18 -62.5 -51
t-28.5 -67q0 -32 31 -32q20 0 49 12zM137 304h246q-3 147 -115 147q-120 0 -131 -147z" />
    <glyph glyph-name="Ecaron" unicode="&#x11a;" horiz-adv-x="635" 
d="M585 0h-524v54l63 7q10 1 13 5t3 15v561q0 12 -3 15.5t-13 4.5l-63 7v55h502v-165l-68 4l-14 77q-3 13 -17 13h-232v-252h267v-72h-267v-258h254q14 0 16 11l16 87h67v-169zM480 879l-118 -102h-84l-117 102l40 41l119 -83l119 83z" />
    <glyph glyph-name="ecaron" unicode="&#x11b;" horiz-adv-x="511" 
d="M433 101l29 -68q-80 -45 -182 -45q-128 0 -184 73t-56 195q0 131 64 199.5t164 68.5q206 0 206 -239q0 -16 -2 -50h-336q5 -170 153 -170q71 0 144 36zM137 304h246q-3 147 -115 147q-120 0 -131 -147zM308 578h-84l-125 121l43 40l124 -101l126 101l44 -39z" />
    <glyph glyph-name="Gcircumflex" unicode="&#x11c;" horiz-adv-x="738" 
d="M716 282l-42 -4q-16 -1 -16 -17v-232q-85 -41 -240 -41q-192 0 -281 102t-89 277q0 166 92.5 268t267.5 102q141 0 222 -54v-159l-68 5l-16 93q-3 15 -14 18q-62 22 -130 22q-120 0 -189 -78t-69 -217q0 -148 72.5 -226t213.5 -78q63 0 123 15q14 3 14 17v177h-136l11 65
h274v-55zM518 766l-119 83l-119 -83l-40 41l117 102h84l117 -102z" />
    <glyph glyph-name="gcircumflex" unicode="&#x11d;" horiz-adv-x="544" 
d="M535 450l-94 -7q37 -46 37 -104q0 -86 -58.5 -135t-149.5 -49q-54 0 -85 12l-45 -87l123 -7q64 -4 97.5 -7t71 -11.5t54 -22.5t27.5 -37.5t11 -58.5q0 -76 -65.5 -118.5t-193.5 -42.5q-124 0 -178.5 31.5t-54.5 91.5q0 33 14.5 56.5t46.5 56.5q-44 14 -44 54q0 22 22 55
q9 13 29 39t26 33q-75 41 -75 142q0 85 58 137.5t159 52.5q54 0 89 -10h178v-64zM389 343q0 51 -31.5 79.5t-87.5 28.5q-57 0 -91 -29t-34 -85q0 -48 30 -77.5t92 -29.5q56 0 89 30.5t33 82.5zM327 -14l-161 9q-44 -46 -44 -83q0 -38 37 -52t117 -15q155 0 155 84
q0 32 -23 42t-81 15zM438 610l-44 -38l-125 101l-125 -101l-44 38l127 123h84z" />
    <glyph glyph-name="Gbreve" unicode="&#x11e;" horiz-adv-x="738" 
d="M716 282l-42 -4q-16 -1 -16 -17v-232q-85 -41 -240 -41q-192 0 -281 102t-89 277q0 166 92.5 268t267.5 102q141 0 222 -54v-159l-68 5l-16 93q-3 15 -14 18q-62 22 -130 22q-120 0 -189 -78t-69 -217q0 -148 72.5 -226t213.5 -78q63 0 123 15q14 3 14 17v177h-136l11 65
h274v-55zM501 920l55 -21q-31 -117 -159 -117q-120 0 -151 117l60 22q27 -74 95 -74q35 0 60 15t40 58z" />
    <glyph glyph-name="gbreve" unicode="&#x11f;" horiz-adv-x="544" 
d="M535 450l-94 -7q37 -46 37 -104q0 -86 -58.5 -135t-149.5 -49q-54 0 -85 12l-45 -87l123 -7q64 -4 97.5 -7t71 -11.5t54 -22.5t27.5 -37.5t11 -58.5q0 -76 -65.5 -118.5t-193.5 -42.5q-124 0 -178.5 31.5t-54.5 91.5q0 33 14.5 56.5t46.5 56.5q-44 14 -44 54q0 22 22 55
q9 13 29 39t26 33q-75 41 -75 142q0 85 58 137.5t159 52.5q54 0 89 -10h178v-64zM389 343q0 51 -31.5 79.5t-87.5 28.5q-57 0 -91 -29t-34 -85q0 -48 30 -77.5t92 -29.5q56 0 89 30.5t33 82.5zM327 -14l-161 9q-44 -46 -44 -83q0 -38 37 -52t117 -15q155 0 155 84
q0 32 -23 42t-81 15zM380 728l56 -22q-35 -133 -169 -133q-130 0 -165 133l60 21q16 -47 41 -68t67 -21t67.5 21.5t42.5 68.5z" />
    <glyph glyph-name="Gdotaccent" unicode="&#x120;" horiz-adv-x="738" 
d="M716 282l-42 -4q-16 -1 -16 -17v-232q-85 -41 -240 -41q-192 0 -281 102t-89 277q0 166 92.5 268t267.5 102q141 0 222 -54v-159l-68 5l-16 93q-3 15 -14 18q-62 22 -130 22q-120 0 -189 -78t-69 -217q0 -148 72.5 -226t213.5 -78q63 0 123 15q14 3 14 17v177h-136l11 65
h274v-55zM450 845q0 -30 -17 -46.5t-48 -16.5t-47.5 16.5t-16.5 46.5q0 63 64 63q65 0 65 -63z" />
    <glyph glyph-name="gdotaccent" unicode="&#x121;" horiz-adv-x="544" 
d="M535 450l-94 -7q37 -46 37 -104q0 -86 -58.5 -135t-149.5 -49q-54 0 -85 12l-45 -87l123 -7q64 -4 97.5 -7t71 -11.5t54 -22.5t27.5 -37.5t11 -58.5q0 -76 -65.5 -118.5t-193.5 -42.5q-124 0 -178.5 31.5t-54.5 91.5q0 33 14.5 56.5t46.5 56.5q-44 14 -44 54q0 22 22 55
q9 13 29 39t26 33q-75 41 -75 142q0 85 58 137.5t159 52.5q54 0 89 -10h178v-64zM389 343q0 51 -31.5 79.5t-87.5 28.5q-57 0 -91 -29t-34 -85q0 -48 30 -77.5t92 -29.5q56 0 89 30.5t33 82.5zM327 -14l-161 9q-44 -46 -44 -83q0 -38 37 -52t117 -15q155 0 155 84
q0 32 -23 42t-81 15zM334 690q0 -31 -17 -47.5t-48 -16.5q-64 0 -64 64q0 30 16.5 46.5t47.5 16.5t48 -16.5t17 -46.5z" />
    <glyph glyph-name="Gcommaaccent" unicode="&#x122;" horiz-adv-x="738" 
d="M716 282l-42 -4q-16 -1 -16 -17v-232q-85 -41 -240 -41q-192 0 -281 102t-89 277q0 166 92.5 268t267.5 102q141 0 222 -54v-159l-68 5l-16 93q-3 15 -14 18q-62 22 -130 22q-120 0 -189 -78t-69 -217q0 -148 72.5 -226t213.5 -78q63 0 123 15q14 3 14 17v177h-136l11 65
h274v-55zM393 -268l-46 16l22 87q3 8 -5 11l-34 14l22 80q54 -2 79.5 -14t25.5 -49q0 -24 -17 -56z" />
    <glyph glyph-name="gcommaaccent" unicode="&#x123;" horiz-adv-x="544" 
d="M535 450l-94 -7q37 -46 37 -104q0 -86 -58.5 -135t-149.5 -49q-54 0 -85 12l-45 -87l123 -7q64 -4 97.5 -7t71 -11.5t54 -22.5t27.5 -37.5t11 -58.5q0 -76 -65.5 -118.5t-193.5 -42.5q-124 0 -178.5 31.5t-54.5 91.5q0 33 14.5 56.5t46.5 56.5q-44 14 -44 54q0 22 22 55
q9 13 29 39t26 33q-75 41 -75 142q0 85 58 137.5t159 52.5q54 0 89 -10h178v-64zM389 343q0 51 -31.5 79.5t-87.5 28.5q-57 0 -91 -29t-34 -85q0 -48 30 -77.5t92 -29.5q56 0 89 30.5t33 82.5zM327 -14l-161 9q-44 -46 -44 -83q0 -38 37 -52t117 -15q155 0 155 84
q0 32 -23 42t-81 15zM333 645l-21 -79q-55 2 -80 14.5t-25 48.5q0 23 24 69l40 76l46 -16l-22 -83q-4 -13 6 -17z" />
    <glyph glyph-name="Hcircumflex" unicode="&#x124;" horiz-adv-x="808" 
d="M751 0h-254v54l63 7q10 1 13 5t3 15v256h-344v-255q0 -12 2.5 -15.5t13.5 -4.5l67 -8v-54h-254v54l63 7q10 1 13 5t3 15v562q0 12 -3 15.5t-13 4.5l-63 7v54h254v-54l-67 -8q-11 -1 -13.5 -4.5t-2.5 -14.5v-234h344v234q0 12 -3 15.5t-13 4.5l-63 7v54h254v-54l-67 -8
q-11 -1 -13.5 -4.5t-2.5 -14.5v-561q0 -12 2.5 -15.5t13.5 -4.5l67 -8v-54zM530 766l-119 83l-119 -83l-40 41l117 102h84l117 -102z" />
    <glyph glyph-name="hcircumflex" unicode="&#x125;" horiz-adv-x="630" 
d="M233 790l-109 83l-109 -83l-40 41l107 102h84l107 -102zM605 0h-230v55l48 6q18 1 18 20v233q0 64 -17.5 98.5t-66.5 34.5q-76 0 -158 -65v-301q0 -12 2.5 -15.5t13.5 -4.5l56 -7v-54h-229v55l50 6q10 1 13 5t3 15v581q0 17 -13 21l-60 19l9 53h154v-297q92 66 180 66
q154 0 154 -182v-261q0 -12 2.5 -15.5t13.5 -4.5l57 -7v-54z" />
    <glyph glyph-name="Hbar" unicode="&#x126;" horiz-adv-x="808" 
d="M751 0h-254v54l63 7q10 1 13 5t3 15v256h-344v-255q0 -12 2.5 -15.5t13.5 -4.5l67 -8v-54h-254v54l63 7q10 1 13 5t3 15v426h-65v69h65v67q0 12 -3 15.5t-13 4.5l-63 7v54h254v-54l-67 -8q-11 -1 -13.5 -4.5t-2.5 -14.5v-67h344v67q0 12 -3 15.5t-13 4.5l-63 7v54h254
v-54l-67 -8q-11 -1 -13.5 -4.5t-2.5 -14.5v-67h66v-69h-66v-425q0 -12 2.5 -15.5t13.5 -4.5l67 -8v-54zM232 409h344v98h-344v-98z" />
    <glyph glyph-name="hbar" unicode="&#x127;" horiz-adv-x="630" 
d="M605 0h-230v55l48 6q18 1 18 20v213q0 64 -17.5 98.5t-66.5 34.5q-76 0 -158 -65v-281q0 -12 2.5 -15.5t13.5 -4.5l56 -7v-54h-229v55l50 6q10 1 13 5t3 15v485h-70v66h70v30q0 17 -13 21l-60 19l9 53h154v-123h181v-66h-181v-128q92 66 180 66q154 0 154 -182v-241
q0 -12 2.5 -15.5t13.5 -4.5l57 -7v-54z" />
    <glyph glyph-name="Itilde" unicode="&#x128;" horiz-adv-x="382" 
d="M330 0h-274v54l73 7q10 1 13 4.5t3 15.5v562q0 12 -3 15.5t-13 4.5l-73 7v54h274v-54l-77 -8q-11 -1 -13.5 -4.5t-2.5 -14.5v-561q0 -12 2.5 -15.5t13.5 -4.5l77 -8v-54zM369 867l-23 -35q-33 -50 -64 -50q-19 0 -43 7q-20 5 -65.5 17.5t-57.5 15.5q-10 1 -16 -5l-39 -38
l-42 30l29 44q27 42 60 42q12 0 42 -7q115 -30 124 -32q9 -3 15 3l36 37z" />
    <glyph glyph-name="itilde" unicode="&#x129;" horiz-adv-x="297" 
d="M298 673l-21 -35q-18 -28 -31 -39t-29 -11q-19 0 -41 7q-19 5 -61.5 17.5t-53.5 15.5q-10 1 -15 -5l-37 -38l-40 30l28 44q26 42 56 42q12 0 40 -7q104 -29 116 -32q9 -3 14 3l34 37zM279 0h-253v55l66 6q10 1 13 4.5t3 15.5v340q0 17 -13 21l-57 19l9 53h152v-433
q0 -12 2.5 -15.5t13.5 -4.5l64 -7v-54z" />
    <glyph glyph-name="Imacron" unicode="&#x12a;" horiz-adv-x="382" 
d="M330 0h-274v54l73 7q10 1 13 4.5t3 15.5v562q0 12 -3 15.5t-13 4.5l-73 7v54h274v-54l-77 -8q-11 -1 -13.5 -4.5t-2.5 -14.5v-561q0 -12 2.5 -15.5t13.5 -4.5l77 -8v-54zM347 794h-307v69h307v-69z" />
    <glyph glyph-name="imacron" unicode="&#x12b;" horiz-adv-x="297" 
d="M265 611h-263v69h263v-69zM279 0h-253v55l66 6q10 1 13 4.5t3 15.5v340q0 17 -13 21l-57 19l9 53h152v-433q0 -12 2.5 -15.5t13.5 -4.5l64 -7v-54z" />
    <glyph glyph-name="Ibreve" unicode="&#x12c;" horiz-adv-x="382" 
d="M330 0h-274v54l73 7q10 1 13 4.5t3 15.5v562q0 12 -3 15.5t-13 4.5l-73 7v54h274v-54l-77 -8q-11 -1 -13.5 -4.5t-2.5 -14.5v-561q0 -12 2.5 -15.5t13.5 -4.5l77 -8v-54zM293 920l55 -21q-31 -117 -159 -117q-120 0 -151 117l60 22q27 -74 95 -74q35 0 60 15t40 58z" />
    <glyph glyph-name="ibreve" unicode="&#x12d;" horiz-adv-x="297" 
d="M234 728l56 -22q-34 -133 -159 -133q-121 0 -155 133l60 21q14 -47 37 -68t61 -21t61.5 21.5t38.5 68.5zM279 0h-253v55l66 6q10 1 13 4.5t3 15.5v340q0 17 -13 21l-57 19l9 53h152v-433q0 -12 2.5 -15.5t13.5 -4.5l64 -7v-54z" />
    <glyph glyph-name="Iogonek" unicode="&#x12e;" horiz-adv-x="392" 
d="M246 -140l21 -56q-47 -22 -93 -22q-43 0 -67 20t-24 59q0 68 88 139h-110v54l73 7q10 1 13 4.5t3 15.5v562q0 12 -3 15.5t-13 4.5l-73 7v54h274v-54l-77 -8q-11 -1 -13.5 -4.5t-2.5 -14.5v-561q0 -12 2.5 -15.5t13.5 -4.5l77 -8v-54h-85q-84 -69 -84 -120q0 -32 31 -32
q20 0 49 12z" />
    <glyph glyph-name="iogonek" unicode="&#x12f;" horiz-adv-x="297" 
d="M196 -140l21 -56q-47 -22 -93 -22q-43 0 -67 20t-24 59q0 68 88 139h-95v55l66 6q10 1 13 4.5t3 15.5v340q0 17 -13 21l-57 19l9 53h152v-433q0 -12 2.5 -15.5t13.5 -4.5l64 -7v-54h-79q-84 -69 -84 -120q0 -32 31 -32q20 0 49 12zM204 689q0 -64 -64 -64q-31 0 -48 16.5
t-17 47.5q0 30 17 46.5t48 16.5t47.5 -16.5t16.5 -46.5z" />
    <glyph glyph-name="Idotaccent" unicode="&#x130;" horiz-adv-x="382" 
d="M330 0h-274v54l73 7q10 1 13 4.5t3 15.5v562q0 12 -3 15.5t-13 4.5l-73 7v54h274v-54l-77 -8q-11 -1 -13.5 -4.5t-2.5 -14.5v-561q0 -12 2.5 -15.5t13.5 -4.5l77 -8v-54zM258 845q0 -30 -17 -46.5t-48 -16.5t-47.5 16.5t-16.5 46.5q0 63 64 63q65 0 65 -63z" />
    <glyph glyph-name="dotlessi" unicode="&#x131;" horiz-adv-x="297" 
d="M279 0h-253v55l66 6q10 1 13 4.5t3 15.5v340q0 17 -13 21l-57 19l9 53h152v-433q0 -12 2.5 -15.5t13.5 -4.5l64 -7v-54z" />
    <glyph glyph-name="IJ" unicode="&#x132;" horiz-adv-x="891" 
d="M330 0h-274v54l73 7q10 1 13 4.5t3 15.5v562q0 12 -3 15.5t-13 4.5l-73 7v54h274v-54l-77 -8q-11 -1 -13.5 -4.5t-2.5 -14.5v-561q0 -12 2.5 -15.5t13.5 -4.5l77 -8v-54zM678 153v491q0 11 -3 14.5t-13 4.5l-85 7v54h276v-54l-67 -8q-11 -1 -13.5 -4t-2.5 -14v-497
q0 -82 -39.5 -120.5t-126.5 -38.5q-52 0 -98.5 11.5t-65.5 23.5v138l68 -4l10 -69q1 -9 12 -14q30 -12 69 -12q45 0 62 21.5t17 69.5z" />
    <glyph glyph-name="ij" unicode="&#x133;" horiz-adv-x="584" 
d="M204 689q0 -64 -64 -64q-31 0 -48 16.5t-17 47.5q0 30 17 46.5t48 16.5t47.5 -16.5t16.5 -46.5zM279 0h-253v55l66 6q10 1 13 4.5t3 15.5v340q0 17 -13 21l-57 19l9 53h152v-433q0 -12 2.5 -15.5t13.5 -4.5l64 -7v-54zM403 -47v468q0 17 -13 21l-64 19l9 53h159v-579
q0 -80 -35.5 -119t-108.5 -39q-43 0 -81.5 12.5t-58.5 29.5l36 59q38 -29 90 -29q38 0 52.5 24t14.5 80zM501 689q0 -31 -17 -47.5t-48 -16.5q-30 0 -47 16.5t-17 47.5q0 30 17 46.5t47 16.5q31 0 48 -16.5t17 -46.5z" />
    <glyph glyph-name="Jcircumflex" unicode="&#x134;" horiz-adv-x="504" 
d="M291 153v491q0 11 -3 14.5t-13 4.5l-85 7v54h276v-54l-67 -8q-11 -1 -13.5 -4t-2.5 -14v-497q0 -82 -39.5 -120.5t-126.5 -38.5q-52 0 -98.5 11.5t-65.5 23.5v138l68 -4l10 -69q1 -9 12 -14q30 -12 69 -12q45 0 62 21.5t17 69.5zM456 766l-119 83l-119 -83l-40 41
l117 102h84l117 -102z" />
    <glyph glyph-name="jcircumflex" unicode="&#x135;" horiz-adv-x="284" 
d="M106 -47v468q0 17 -13 21l-64 19l9 53h159v-579q0 -82 -35.5 -120t-112.5 -38q-40 0 -78 13t-58 29l36 59q36 -29 87 -29q41 0 55.5 23.5t14.5 80.5zM294 604l-44 -38l-125 101l-125 -101l-44 38l127 123h84z" />
    <glyph glyph-name="Kcommaaccent" unicode="&#x136;" horiz-adv-x="735" 
d="M711 0h-260v54l69 8l-210 278l-78 -85v-173q0 -12 2.5 -15.5t13.5 -4.5l67 -8v-54h-254v54l63 7q10 1 13 5t3 15v562q0 12 -3 15.5t-13 4.5l-63 7v54h254v-54l-67 -8q-11 -1 -13.5 -4.5t-2.5 -14.5v-286l278 304l-62 8v55h225v-54l-51 -9q-19 -3 -30 -17l-217 -234
l246 -330q9 -13 29 -16l61 -10v-54zM371 -268l-46 16l22 87q3 8 -5 11l-34 14l22 80q54 -2 79.5 -14t25.5 -49q0 -24 -17 -56z" />
    <glyph glyph-name="kcommaaccent" unicode="&#x137;" horiz-adv-x="591" 
d="M582 0h-237v54l63 8l-125 207l-84 -94v-94q0 -12 2.5 -15.5t13.5 -4.5l60 -7v-54h-245v55l62 6q10 1 13 4.5t3 15.5v581q0 17 -13 21l-60 19l9 53h155v-481l212 240h111v-54l-57 -12q-14 -2 -25 -15l-91 -102l152 -252q8 -12 29 -16l52 -9v-54zM295 -268l-46 16l22 87
q3 8 -5 11l-34 14l22 80q54 -2 79.5 -14t25.5 -49q0 -24 -17 -56z" />
    <glyph glyph-name="kgreenlandic" unicode="&#x138;" horiz-adv-x="591" 
d="M582 0h-237v54l63 8l-125 207l-84 -94v-94q0 -12 2.5 -15.5t13.5 -4.5l60 -7v-54h-245v55l62 6q10 1 13 4.5t3 15.5v340q0 17 -13 21l-60 19l9 53h155v-240l212 240h111v-54l-57 -12q-14 -2 -25 -15l-91 -102l152 -252q8 -12 29 -16l52 -9v-54z" />
    <glyph glyph-name="Lacute" unicode="&#x139;" horiz-adv-x="619" 
d="M585 0h-524v54l63 7q10 1 13 5t3 15v561q0 12 -3 15.5t-13 4.5l-63 7v55h270v-55l-83 -8q-11 -1 -13.5 -4.5t-2.5 -14.5v-571h254q14 0 16 11l16 90h67v-172zM317 867l-204 -101l-29 46l188 129z" />
    <glyph glyph-name="lacute" unicode="&#x13a;" horiz-adv-x="297" 
d="M275 0h-245v55l62 6q10 1 13 4.5t3 15.5v581q0 17 -13 21l-60 19l9 53h155v-674q0 -12 2.5 -15.5t13.5 -4.5l60 -7v-54zM244 892l-204 -101l-29 46l188 129z" />
    <glyph glyph-name="Lcommaaccent" unicode="&#x13b;" horiz-adv-x="619" 
d="M585 0h-524v54l63 7q10 1 13 5t3 15v561q0 12 -3 15.5t-13 4.5l-63 7v55h270v-55l-83 -8q-11 -1 -13.5 -4.5t-2.5 -14.5v-571h254q14 0 16 11l16 90h67v-172zM338 -268l-46 16l22 87q3 8 -5 11l-34 14l22 80q54 -2 79.5 -14t25.5 -49q0 -24 -17 -56z" />
    <glyph glyph-name="lcommaaccent" unicode="&#x13c;" horiz-adv-x="297" 
d="M275 0h-245v55l62 6q10 1 13 4.5t3 15.5v581q0 17 -13 21l-60 19l9 53h155v-674q0 -12 2.5 -15.5t13.5 -4.5l60 -7v-54zM148 -268l-46 16l22 87q3 8 -5 11l-34 14l22 80q54 -2 79.5 -14t25.5 -49q0 -24 -17 -56z" />
    <glyph glyph-name="Lcaron" unicode="&#x13d;" horiz-adv-x="619" 
d="M585 0h-524v54l63 7q10 1 13 5t3 15v561q0 12 -3 15.5t-13 4.5l-63 7v55h270v-55l-83 -8q-11 -1 -13.5 -4.5t-2.5 -14.5v-571h254q14 0 16 11l16 90h67v-172zM424 557l-46 14q19 63 19 103q0 36 -14 64l69 30q24 -27 24 -55q0 -21 -8 -46q-14 -48 -44 -110z" />
    <glyph glyph-name="lcaron" unicode="&#x13e;" horiz-adv-x="339" 
d="M275 0h-245v55l62 6q10 1 13 4.5t3 15.5v581q0 17 -13 21l-60 19l9 53h155v-674q0 -12 2.5 -15.5t13.5 -4.5l60 -7v-54zM290 568l-46 14q19 63 19 103q0 36 -14 64l69 30q24 -27 24 -55q0 -21 -8 -46q-14 -48 -44 -110z" />
    <glyph glyph-name="Ldot" unicode="&#x13f;" horiz-adv-x="619" 
d="M585 0h-524v54l63 7q10 1 13 5t3 15v561q0 12 -3 15.5t-13 4.5l-63 7v55h270v-55l-83 -8q-11 -1 -13.5 -4.5t-2.5 -14.5v-571h254q14 0 16 11l16 90h67v-172zM547 396q0 -30 -17 -46.5t-48 -16.5t-47.5 16.5t-16.5 46.5q0 63 64 63q65 0 65 -63z" />
    <glyph glyph-name="ldot" unicode="&#x140;" horiz-adv-x="369" 
d="M275 0h-245v55l62 6q10 1 13 4.5t3 15.5v581q0 17 -13 21l-60 19l9 53h155v-674q0 -12 2.5 -15.5t13.5 -4.5l60 -7v-54zM399 378q0 -31 -17 -47.5t-48 -16.5q-64 0 -64 64q0 30 16.5 46.5t47.5 16.5t48 -16.5t17 -46.5z" />
    <glyph glyph-name="Lslash" unicode="&#x141;" horiz-adv-x="619" 
d="M585 0h-524v54l63 7q10 1 13 5t3 15v209l-85 -35v70l85 35v282q0 12 -3 15.5t-13 4.5l-63 7v55h270v-55l-83 -8q-11 -1 -13.5 -4.5t-2.5 -14.5v-243l235 98v-72l-235 -97v-257h254q14 0 16 11l16 90h67v-172z" />
    <glyph glyph-name="lslash" unicode="&#x142;" horiz-adv-x="302" 
d="M275 0h-245v55l62 6q10 1 13 4.5t3 15.5v259l-83 -40v74l83 40v248q0 17 -13 21l-60 19l9 53h155v-297l84 41v-74l-84 -41v-303q0 -12 2.5 -15.5t13.5 -4.5l60 -7v-54z" />
    <glyph glyph-name="Nacute" unicode="&#x143;" horiz-adv-x="828" 
d="M693 0h-107l-365 605v-523q0 -12 2.5 -15.5t13.5 -4.5l67 -8v-54h-243v54l63 7q10 1 13 5t3 15v562q0 12 -3 15.5t-13 4.5l-63 7v55h196l356 -601v519q0 12 -3 15.5t-13 4.5l-63 7v54h242v-54l-67 -8q-11 -1 -13.5 -4.5t-2.5 -14.5v-643zM574 867l-204 -101l-29 46
l188 129z" />
    <glyph glyph-name="nacute" unicode="&#x144;" horiz-adv-x="630" 
d="M605 0h-230v55l48 6q18 1 18 20v237q0 58 -18 93t-69 35q-77 0 -155 -64v-301q0 -12 2.5 -15.5t13.5 -4.5l56 -7v-54h-229v55l50 6q10 1 13 5t3 15v340q0 17 -13 21l-57 19l9 53h131l8 -59l3 -1q98 70 185 70q158 0 158 -183v-260q0 -12 2.5 -15.5t13.5 -4.5l57 -7v-54z
M422 708l-176 -141l-39 37l155 164z" />
    <glyph glyph-name="Ncommaaccent" unicode="&#x145;" horiz-adv-x="828" 
d="M693 0h-107l-365 605v-523q0 -12 2.5 -15.5t13.5 -4.5l67 -8v-54h-243v54l63 7q10 1 13 5t3 15v562q0 12 -3 15.5t-13 4.5l-63 7v55h196l356 -601v519q0 12 -3 15.5t-13 4.5l-63 7v54h242v-54l-67 -8q-11 -1 -13.5 -4.5t-2.5 -14.5v-643zM409 -268l-46 16l22 87
q3 8 -5 11l-34 14l22 80q54 -2 79.5 -14t25.5 -49q0 -24 -17 -56z" />
    <glyph glyph-name="ncommaaccent" unicode="&#x146;" horiz-adv-x="630" 
d="M605 0h-230v55l48 6q18 1 18 20v237q0 58 -18 93t-69 35q-77 0 -155 -64v-301q0 -12 2.5 -15.5t13.5 -4.5l56 -7v-54h-229v55l50 6q10 1 13 5t3 15v340q0 17 -13 21l-57 19l9 53h131l8 -59l3 -1q98 70 185 70q158 0 158 -183v-260q0 -12 2.5 -15.5t13.5 -4.5l57 -7v-54z
M314 -268l-46 16l22 87q3 8 -5 11l-34 14l22 80q54 -2 79.5 -14t25.5 -49q0 -24 -17 -56z" />
    <glyph glyph-name="Ncaron" unicode="&#x147;" horiz-adv-x="828" 
d="M693 0h-107l-365 605v-523q0 -12 2.5 -15.5t13.5 -4.5l67 -8v-54h-243v54l63 7q10 1 13 5t3 15v562q0 12 -3 15.5t-13 4.5l-63 7v55h196l356 -601v519q0 12 -3 15.5t-13 4.5l-63 7v54h242v-54l-67 -8q-11 -1 -13.5 -4.5t-2.5 -14.5v-643zM582 879l-118 -102h-84l-117 102
l40 41l119 -83l119 83z" />
    <glyph glyph-name="ncaron" unicode="&#x148;" horiz-adv-x="630" 
d="M605 0h-230v55l48 6q18 1 18 20v237q0 58 -18 93t-69 35q-77 0 -155 -64v-301q0 -12 2.5 -15.5t13.5 -4.5l56 -7v-54h-229v55l50 6q10 1 13 5t3 15v340q0 17 -13 21l-57 19l9 53h131l8 -59l3 -1q98 70 185 70q158 0 158 -183v-260q0 -12 2.5 -15.5t13.5 -4.5l57 -7v-54z
M348 578h-84l-125 121l43 40l124 -101l126 101l44 -39z" />
    <glyph glyph-name="napostrophe" unicode="&#x149;" horiz-adv-x="651" 
d="M626 0h-230v55l48 6q18 1 18 20v237q0 58 -18 93t-69 35q-77 0 -155 -64v-301q0 -12 2.5 -15.5t13.5 -4.5l56 -7v-54h-229v55l50 6q10 1 13 5t3 15v340q0 17 -13 21l-57 19l9 53h131l8 -59l3 -1q98 70 185 70q158 0 158 -183v-260q0 -12 2.5 -15.5t13.5 -4.5l57 -7v-54z
M32 499l-41 14l24 77q3 9 -3 12l-30 11l18 66q46 -1 69 -11.5t23 -40.5q0 -19 -13 -42z" />
    <glyph glyph-name="Eng" unicode="&#x14a;" horiz-adv-x="828" 
d="M602 -47v47l-381 605v-523q0 -12 2.5 -15.5t13.5 -4.5l67 -8v-54h-243v54l63 7q10 1 13 5t3 15v562q0 12 -3 15.5t-13 4.5l-63 7v55h196l356 -581v499q0 12 -3 15.5t-13 4.5l-63 7v54h242v-54l-67 -8q-11 -1 -13.5 -4.5t-2.5 -14.5v-708q0 -79 -42.5 -118.5t-121.5 -39.5
q-45 0 -87 15t-63 32l36 59q16 -12 46.5 -23t60.5 -11q80 0 80 104z" />
    <glyph glyph-name="eng" unicode="&#x14b;" horiz-adv-x="630" 
d="M441 -47v365q0 58 -18 93t-69 35q-77 0 -155 -64v-301q0 -12 2.5 -15.5t13.5 -4.5l56 -7v-54h-229v55l50 6q10 1 13 5t3 15v340q0 17 -13 21l-57 19l9 53h131l8 -59l3 -1q98 70 185 70q158 0 158 -183v-406q0 -80 -35.5 -119t-108.5 -39q-43 0 -81.5 12.5t-58.5 29.5
l36 59q38 -29 90 -29q38 0 52.5 24t14.5 80z" />
    <glyph glyph-name="Omacron" unicode="&#x14c;" horiz-adv-x="777" 
d="M384 -12q-168 0 -251 102t-83 276q0 165 91 268t257 103q163 0 246 -100t83 -260q0 -181 -87.5 -285t-255.5 -104zM389 65q113 0 178 76t65 226q0 142 -62.5 217.5t-173.5 75.5q-113 0 -182 -77t-69 -217q0 -147 65.5 -224t178.5 -77zM550 795h-307v69h307v-69z" />
    <glyph glyph-name="omacron" unicode="&#x14d;" horiz-adv-x="568" 
d="M281 -12q-125 0 -183 72.5t-58 198.5q0 122 63.5 193.5t187.5 71.5q122 0 179.5 -69.5t57.5 -189.5q0 -131 -61.5 -204t-185.5 -73zM284 61q150 0 150 198q0 97 -36 143t-109 46q-155 0 -155 -190q0 -197 150 -197zM445 611h-307v69h307v-69z" />
    <glyph glyph-name="Obreve" unicode="&#x14e;" horiz-adv-x="777" 
d="M384 -12q-168 0 -251 102t-83 276q0 165 91 268t257 103q163 0 246 -100t83 -260q0 -181 -87.5 -285t-255.5 -104zM389 65q113 0 178 76t65 226q0 142 -62.5 217.5t-173.5 75.5q-113 0 -182 -77t-69 -217q0 -147 65.5 -224t178.5 -77zM496 921l55 -21q-31 -117 -159 -117
q-120 0 -151 117l60 22q27 -74 95 -74q35 0 60 15t40 58z" />
    <glyph glyph-name="obreve" unicode="&#x14f;" horiz-adv-x="568" 
d="M281 -12q-125 0 -183 72.5t-58 198.5q0 122 63.5 193.5t187.5 71.5q122 0 179.5 -69.5t57.5 -189.5q0 -131 -61.5 -204t-185.5 -73zM284 61q150 0 150 198q0 97 -36 143t-109 46q-155 0 -155 -190q0 -197 150 -197zM402 728l56 -22q-35 -133 -169 -133q-130 0 -165 133
l60 21q16 -47 41 -68t67 -21t67.5 21.5t42.5 68.5z" />
    <glyph glyph-name="Ohungarumlaut" unicode="&#x150;" horiz-adv-x="777" 
d="M384 -12q-168 0 -251 102t-83 276q0 165 91 268t257 103q163 0 246 -100t83 -260q0 -181 -87.5 -285t-255.5 -104zM389 65q113 0 178 76t65 226q0 142 -62.5 217.5t-173.5 75.5q-113 0 -182 -77t-69 -217q0 -147 65.5 -224t178.5 -77zM465 911l-171 -145l-41 37l150 167z
M642 898l-181 -133l-37 38l160 157z" />
    <glyph glyph-name="ohungarumlaut" unicode="&#x151;" horiz-adv-x="568" 
d="M281 -12q-125 0 -183 72.5t-58 198.5q0 122 63.5 193.5t187.5 71.5q122 0 179.5 -69.5t57.5 -189.5q0 -131 -61.5 -204t-185.5 -73zM284 61q150 0 150 198q0 97 -36 143t-109 46q-155 0 -155 -190q0 -197 150 -197zM342 727l-159 -159l-42 33l135 180zM513 727l-159 -159
l-43 33l136 180z" />
    <glyph glyph-name="OE" unicode="&#x152;" horiz-adv-x="988" 
d="M946 0h-500q-45 -12 -100 -12q-84 0 -143 27.5t-91.5 79.5t-47 118t-14.5 153q0 82 17 148t53 117t97 78.5t143 27.5q53 0 100 -13h464v-165l-68 4l-14 77q-3 13 -17 13h-254q76 -80 81 -252h216v-72h-217q-8 -178 -89 -258h285q14 0 16 11l16 87h67v-169zM351 68
q106 0 155.5 73t49.5 226q0 290 -197 290q-103 0 -157.5 -75.5t-54.5 -215.5q0 -150 49 -224t155 -74z" />
    <glyph glyph-name="oe" unicode="&#x153;" horiz-adv-x="902" 
d="M823 101l28 -68q-80 -45 -178 -45q-145 0 -196 104q-58 -104 -203 -104q-121 0 -177.5 72.5t-56.5 198.5q0 122 62.5 193.5t184.5 71.5q140 0 194 -100q57 100 181 100q93 0 147.5 -57.5t54.5 -181.5q0 -16 -2 -50h-337q7 -170 154 -170q69 0 144 36zM282 61
q151 0 151 198q0 189 -144 189q-154 0 -154 -190q0 -197 147 -197zM527 304h245q-1 147 -115 147q-119 0 -130 -147z" />
    <glyph glyph-name="Racute" unicode="&#x154;" horiz-adv-x="680" 
d="M670 0h-257v54l79 6l-83 207q-10 24 -24 33t-44 9h-110v-227q0 -12 2.5 -15.5t13.5 -4.5l66 -8v-54h-252v54l63 7q10 1 13 5t3 15v561q0 12 -3 15.5t-13 4.5l-63 7v55h306q65 0 111 -16.5t70 -46t34.5 -62t10.5 -71.5q0 -145 -139 -195q16 -7 26.5 -18.5t15 -21.5
l14.5 -33l68 -175q7 -20 31 -23l61 -9v-53zM231 381h92q81 0 127.5 31.5t46.5 112.5q0 73 -45 99.5t-143 26.5h-78v-270zM461 867l-204 -101l-29 46l188 129z" />
    <glyph glyph-name="racute" unicode="&#x155;" horiz-adv-x="433" 
d="M307 0h-265v55l50 6q10 1 13 5t3 15v340q0 17 -13 21l-57 19l9 53h131l10 -69l3 -1q71 80 150 80q40 0 72 -9v-151l-71 3l-12 69q-1 10 -12 10q-53 0 -119 -63v-301q0 -12 2.5 -15.5t13.5 -4.5l92 -8v-54zM340 708l-176 -141l-39 37l155 164z" />
    <glyph glyph-name="Rcommaaccent" unicode="&#x156;" horiz-adv-x="680" 
d="M670 0h-257v54l79 6l-83 207q-10 24 -24 33t-44 9h-110v-227q0 -12 2.5 -15.5t13.5 -4.5l66 -8v-54h-252v54l63 7q10 1 13 5t3 15v561q0 12 -3 15.5t-13 4.5l-63 7v55h306q65 0 111 -16.5t70 -46t34.5 -62t10.5 -71.5q0 -145 -139 -195q16 -7 26.5 -18.5t15 -21.5
l14.5 -33l68 -175q7 -20 31 -23l61 -9v-53zM231 381h92q81 0 127.5 31.5t46.5 112.5q0 73 -45 99.5t-143 26.5h-78v-270zM352 -268l-46 16l22 87q3 8 -5 11l-34 14l22 80q54 -2 79.5 -14t25.5 -49q0 -24 -17 -56z" />
    <glyph glyph-name="rcommaaccent" unicode="&#x157;" horiz-adv-x="433" 
d="M307 0h-265v55l50 6q10 1 13 5t3 15v340q0 17 -13 21l-57 19l9 53h131l10 -69l3 -1q71 80 150 80q40 0 72 -9v-151l-71 3l-12 69q-1 10 -12 10q-53 0 -119 -63v-301q0 -12 2.5 -15.5t13.5 -4.5l92 -8v-54zM152 -268l-46 16l22 87q3 8 -5 11l-34 14l22 80q54 -2 79.5 -14
t25.5 -49q0 -24 -17 -56z" />
    <glyph glyph-name="Rcaron" unicode="&#x158;" horiz-adv-x="680" 
d="M670 0h-257v54l79 6l-83 207q-10 24 -24 33t-44 9h-110v-227q0 -12 2.5 -15.5t13.5 -4.5l66 -8v-54h-252v54l63 7q10 1 13 5t3 15v561q0 12 -3 15.5t-13 4.5l-63 7v55h306q65 0 111 -16.5t70 -46t34.5 -62t10.5 -71.5q0 -145 -139 -195q16 -7 26.5 -18.5t15 -21.5
l14.5 -33l68 -175q7 -20 31 -23l61 -9v-53zM231 381h92q81 0 127.5 31.5t46.5 112.5q0 73 -45 99.5t-143 26.5h-78v-270zM489 879l-118 -102h-84l-117 102l40 41l119 -83l119 83z" />
    <glyph glyph-name="rcaron" unicode="&#x159;" horiz-adv-x="433" 
d="M307 0h-265v55l50 6q10 1 13 5t3 15v340q0 17 -13 21l-57 19l9 53h131l10 -69l3 -1q71 80 150 80q40 0 72 -9v-151l-71 3l-12 69q-1 10 -12 10q-53 0 -119 -63v-301q0 -12 2.5 -15.5t13.5 -4.5l92 -8v-54zM266 578h-84l-125 121l43 40l124 -101l126 101l44 -39z" />
    <glyph glyph-name="Sacute" unicode="&#x15a;" horiz-adv-x="584" 
d="M509 532l-69 6l-15 85q-4 17 -11 21q-30 17 -95 17q-76 0 -114.5 -30.5t-38.5 -85.5q0 -30 11 -51.5t36.5 -37t46 -23.5t58.5 -20l44 -13.5t41.5 -16t41 -21t33.5 -26t29 -35t16.5 -45t7.5 -57.5q0 -109 -74 -160t-191 -51q-62 0 -122 12.5t-88 25.5v164h67l19 -88
q2 -10 6 -14t14 -8q51 -17 112 -17q163 0 163 126q0 59 -37 87.5t-110 49.5q-98 29 -131 48q-87 50 -87 159q0 102 70 153t181 51q94 0 186 -35v-170zM439 867l-204 -101l-29 46l188 129z" />
    <glyph glyph-name="sacute" unicode="&#x15b;" horiz-adv-x="460" 
d="M410 367l-67 4l-12 62q-2 11 -10 13q-31 11 -78 11q-53 0 -79.5 -20.5t-26.5 -54.5q0 -16 7 -28.5t14.5 -19.5t27.5 -15t28.5 -10.5t36.5 -9.5q7 -2 11 -3q38 -10 60 -18t49.5 -24.5t40.5 -44t13 -65.5q0 -81 -57.5 -118.5t-145.5 -37.5q-55 0 -109.5 12t-71.5 22v133
l67 -4l12 -69q2 -10 12 -14q42 -16 98 -16q110 0 110 79q0 17 -7 31t-16.5 22t-28 15.5t-31.5 11t-38 9.5q-32 7 -48.5 11.5t-43 16.5t-39.5 26t-24 38t-11 56q0 80 56.5 118t142.5 38q93 0 158 -28v-129zM356 708l-176 -141l-39 37l155 164z" />
    <glyph glyph-name="Scircumflex" unicode="&#x15c;" horiz-adv-x="584" 
d="M509 532l-69 6l-15 85q-4 17 -11 21q-30 17 -95 17q-76 0 -114.5 -30.5t-38.5 -85.5q0 -30 11 -51.5t36.5 -37t46 -23.5t58.5 -20l44 -13.5t41.5 -16t41 -21t33.5 -26t29 -35t16.5 -45t7.5 -57.5q0 -109 -74 -160t-191 -51q-62 0 -122 12.5t-88 25.5v164h67l19 -88
q2 -10 6 -14t14 -8q51 -17 112 -17q163 0 163 126q0 59 -37 87.5t-110 49.5q-98 29 -131 48q-87 50 -87 159q0 102 70 153t181 51q94 0 186 -35v-170zM426 766l-119 83l-119 -83l-40 41l117 102h84l117 -102z" />
    <glyph glyph-name="scircumflex" unicode="&#x15d;" horiz-adv-x="460" 
d="M410 367l-67 4l-12 62q-2 11 -10 13q-31 11 -78 11q-53 0 -79.5 -20.5t-26.5 -54.5q0 -16 7 -28.5t14.5 -19.5t27.5 -15t28.5 -10.5t36.5 -9.5q7 -2 11 -3q38 -10 60 -18t49.5 -24.5t40.5 -44t13 -65.5q0 -81 -57.5 -118.5t-145.5 -37.5q-55 0 -109.5 12t-71.5 22v133
l67 -4l12 -69q2 -10 12 -14q42 -16 98 -16q110 0 110 79q0 17 -7 31t-16.5 22t-28 15.5t-31.5 11t-38 9.5q-32 7 -48.5 11.5t-43 16.5t-39.5 26t-24 38t-11 56q0 80 56.5 118t142.5 38q93 0 158 -28v-129zM409 610l-44 -38l-125 101l-125 -101l-44 38l127 123h84z" />
    <glyph glyph-name="Scedilla" unicode="&#x15e;" horiz-adv-x="584" 
d="M195 -232l7 52q14 -3 30 -3q73 0 73 54q0 44 -70 45l10 73q-58 2 -111.5 13.5t-77.5 23.5v164h67l19 -88q2 -10 6 -14t14 -8q51 -17 112 -17q163 0 163 126q0 59 -37 87.5t-110 49.5q-98 29 -131 48q-87 50 -87 159q0 102 70 153t181 51q94 0 186 -35v-170l-69 6l-15 85
q-4 17 -11 21q-30 17 -95 17q-76 0 -114.5 -30.5t-38.5 -85.5q0 -30 11 -51.5t36.5 -37t46 -23.5t58.5 -20l44 -13.5t41.5 -16t41 -21t33.5 -26t29 -35t16.5 -45t7.5 -57.5q0 -100 -62.5 -151t-165.5 -58l-4 -34q32 -7 53 -27.5t21 -54.5q0 -45 -33 -77.5t-101 -32.5
q-28 0 -44 4z" />
    <glyph glyph-name="scedilla" unicode="&#x15f;" horiz-adv-x="460" 
d="M141 -232l6 52q15 -3 31 -3q73 0 73 54q0 44 -70 45l9 73q-49 3 -92.5 13.5t-56.5 19.5v127l67 -4l11 -63q1 -10 12 -14q42 -16 99 -16q110 0 110 79q0 17 -7 31t-16.5 22t-28 15.5t-31.5 11t-38 9.5q-32 7 -48.5 11.5t-43 16.5t-39.5 26t-24 38t-11 56q0 80 56.5 118
t142.5 38q93 0 158 -28v-129l-67 4l-12 62q-2 11 -10 13q-31 11 -78 11q-53 0 -79.5 -20.5t-26.5 -54.5q0 -16 7 -28.5t14.5 -19.5t27.5 -15t28.5 -10.5t36.5 -9.5q7 -2 11 -3q38 -10 60 -18t49.5 -24.5t40.5 -44t13 -65.5q0 -75 -49 -112.5t-127 -42.5l-4 -33
q32 -7 53 -27.5t21 -54.5q0 -45 -33 -77.5t-102 -32.5q-28 0 -43 4z" />
    <glyph glyph-name="Scaron" unicode="&#x160;" horiz-adv-x="584" 
d="M509 532l-69 6l-15 85q-4 17 -11 21q-30 17 -95 17q-76 0 -114.5 -30.5t-38.5 -85.5q0 -30 11 -51.5t36.5 -37t46 -23.5t58.5 -20l44 -13.5t41.5 -16t41 -21t33.5 -26t29 -35t16.5 -45t7.5 -57.5q0 -109 -74 -160t-191 -51q-62 0 -122 12.5t-88 25.5v164h67l19 -88
q2 -10 6 -14t14 -8q51 -17 112 -17q163 0 163 126q0 59 -37 87.5t-110 49.5q-98 29 -131 48q-87 50 -87 159q0 102 70 153t181 51q94 0 186 -35v-170zM467 879l-118 -102h-84l-117 102l40 41l119 -83l119 83z" />
    <glyph glyph-name="scaron" unicode="&#x161;" horiz-adv-x="460" 
d="M410 367l-67 4l-12 62q-2 11 -10 13q-31 11 -78 11q-53 0 -79.5 -20.5t-26.5 -54.5q0 -16 7 -28.5t14.5 -19.5t27.5 -15t28.5 -10.5t36.5 -9.5q7 -2 11 -3q38 -10 60 -18t49.5 -24.5t40.5 -44t13 -65.5q0 -81 -57.5 -118.5t-145.5 -37.5q-55 0 -109.5 12t-71.5 22v133
l67 -4l12 -69q2 -10 12 -14q42 -16 98 -16q110 0 110 79q0 17 -7 31t-16.5 22t-28 15.5t-31.5 11t-38 9.5q-32 7 -48.5 11.5t-43 16.5t-39.5 26t-24 38t-11 56q0 80 56.5 118t142.5 38q93 0 158 -28v-129zM282 578h-84l-125 121l43 40l124 -101l126 101l44 -39z" />
    <glyph glyph-name="uni0162" unicode="&#x162;" horiz-adv-x="660" 
d="M243 -232l7 52q14 -3 30 -3q73 0 73 54q0 44 -70 45l12 84h-130v55l103 7q10 1 13 4.5t3 15.5v571h-155q-14 0 -16 -11l-16 -87h-67v169h600v-169h-67l-16 87q-2 11 -16 11h-155v-571q0 -11 2.5 -14.5t13.5 -4.5l110 -8v-55h-149l-6 -44q32 -7 53 -27.5t21 -54.5
q0 -45 -33 -77.5t-101 -32.5q-28 0 -44 4z" />
    <glyph glyph-name="uni0163" unicode="&#x163;" horiz-adv-x="412" 
d="M157 -232l6 52q15 -3 31 -3q73 0 73 54q0 44 -70 45l10 75q-101 16 -101 132v312q0 10 -8 10h-73v58q58 7 80.5 36.5t32.5 106.5h59v-122q0 -10 8 -10h147v-69h-155v-295q0 -48 15 -67.5t57 -19.5q44 0 93 20l22 -64q-66 -26 -119 -30l-4 -33q32 -7 53 -27.5t21 -54.5
q0 -45 -33 -77.5t-102 -32.5q-28 0 -43 4z" />
    <glyph glyph-name="Tcaron" unicode="&#x164;" horiz-adv-x="660" 
d="M502 0h-337v55l103 7q10 1 13 4.5t3 15.5v571h-155q-14 0 -16 -11l-16 -87h-67v169h600v-169h-67l-16 87q-2 11 -16 11h-155v-571q0 -11 2.5 -14.5t13.5 -4.5l110 -8v-55zM490 879l-118 -102h-84l-117 102l40 41l119 -83l119 83z" />
    <glyph glyph-name="tcaron" unicode="&#x165;" horiz-adv-x="412" 
d="M362 83l22 -64q-78 -31 -139 -31q-139 0 -139 135v312q0 10 -8 10h-73v58q58 7 80.5 36.5t32.5 106.5h59v-122q0 -10 8 -10h147v-69h-155v-295q0 -48 15 -67.5t57 -19.5q44 0 93 20zM313 552l-46 14q19 63 19 103q0 36 -14 64l69 30q24 -27 24 -55q0 -21 -8 -46
q-14 -48 -44 -110z" />
    <glyph glyph-name="Tbar" unicode="&#x166;" horiz-adv-x="660" 
d="M502 0h-337v55l103 7q10 1 13 4.5t3 15.5v241h-131v67h131v263h-155q-14 0 -16 -11l-16 -87h-67v169h600v-169h-67l-16 87q-2 11 -16 11h-155v-263h120v-67h-120v-241q0 -11 2.5 -14.5t13.5 -4.5l110 -8v-55z" />
    <glyph glyph-name="tbar" unicode="&#x167;" horiz-adv-x="412" 
d="M362 83l22 -64q-78 -31 -139 -31q-139 0 -139 135v110h-81v69h81v133q0 10 -8 10h-73v58q58 7 80.5 36.5t32.5 106.5h59v-122q0 -10 8 -10h147v-69h-155v-143h155v-69h-155v-83q0 -48 15 -67.5t57 -19.5q44 0 93 20z" />
    <glyph glyph-name="Utilde" unicode="&#x168;" horiz-adv-x="788" 
d="M571 252v391q0 12 -3 15.5t-13 4.5l-63 7v54h248v-54l-67 -8q-11 -1 -13.5 -4.5t-2.5 -14.5v-401q0 -254 -267 -254q-137 0 -198 63.5t-61 192.5v399q0 12 -3 15.5t-13 4.5l-63 7v54h254v-54l-67 -8q-11 -1 -13.5 -4.5t-2.5 -14.5v-388q0 -100 42.5 -144.5t130.5 -44.5
q91 0 133 42t42 144zM577 867l-23 -35q-33 -50 -64 -50q-19 0 -43 7q-20 5 -65.5 17.5t-57.5 15.5q-10 1 -16 -5l-39 -38l-42 30l29 44q27 42 60 42q12 0 42 -7q115 -30 124 -32q9 -3 15 3l36 37z" />
    <glyph glyph-name="utilde" unicode="&#x169;" horiz-adv-x="627" 
d="M593 0h-141l-8 68l-2 1q-96 -81 -193 -81q-79 0 -111.5 45.5t-32.5 136.5v254q0 13 -2.5 17t-13.5 6l-52 13l8 54h151v-323q0 -69 16.5 -99t61.5 -30q85 0 161 87v276q0 12 -2.5 16t-13.5 6l-50 13l8 54h149v-432q0 -20 14 -21l53 -7v-54zM479 673l-23 -35
q-33 -50 -64 -50q-19 0 -43 7q-20 5 -65.5 17.5t-57.5 15.5q-10 1 -16 -5l-39 -38l-42 30l29 44q27 42 60 42q12 0 42 -7q115 -30 124 -32q9 -3 15 3l36 37z" />
    <glyph glyph-name="Umacron" unicode="&#x16a;" horiz-adv-x="788" 
d="M571 252v391q0 12 -3 15.5t-13 4.5l-63 7v54h248v-54l-67 -8q-11 -1 -13.5 -4.5t-2.5 -14.5v-401q0 -254 -267 -254q-137 0 -198 63.5t-61 192.5v399q0 12 -3 15.5t-13 4.5l-63 7v54h254v-54l-67 -8q-11 -1 -13.5 -4.5t-2.5 -14.5v-388q0 -100 42.5 -144.5t130.5 -44.5
q91 0 133 42t42 144zM555 794h-307v69h307v-69z" />
    <glyph glyph-name="umacron" unicode="&#x16b;" horiz-adv-x="627" 
d="M593 0h-141l-8 68l-2 1q-96 -81 -193 -81q-79 0 -111.5 45.5t-32.5 136.5v254q0 13 -2.5 17t-13.5 6l-52 13l8 54h151v-323q0 -69 16.5 -99t61.5 -30q85 0 161 87v276q0 12 -2.5 16t-13.5 6l-50 13l8 54h149v-432q0 -20 14 -21l53 -7v-54zM457 611h-307v69h307v-69z" />
    <glyph glyph-name="Ubreve" unicode="&#x16c;" horiz-adv-x="788" 
d="M571 252v391q0 12 -3 15.5t-13 4.5l-63 7v54h248v-54l-67 -8q-11 -1 -13.5 -4.5t-2.5 -14.5v-401q0 -254 -267 -254q-137 0 -198 63.5t-61 192.5v399q0 12 -3 15.5t-13 4.5l-63 7v54h254v-54l-67 -8q-11 -1 -13.5 -4.5t-2.5 -14.5v-388q0 -100 42.5 -144.5t130.5 -44.5
q91 0 133 42t42 144zM501 920l55 -21q-31 -117 -159 -117q-120 0 -151 117l60 22q27 -74 95 -74q35 0 60 15t40 58z" />
    <glyph glyph-name="ubreve" unicode="&#x16d;" horiz-adv-x="627" 
d="M593 0h-141l-8 68l-2 1q-96 -81 -193 -81q-79 0 -111.5 45.5t-32.5 136.5v254q0 13 -2.5 17t-13.5 6l-52 13l8 54h151v-323q0 -69 16.5 -99t61.5 -30q85 0 161 87v276q0 12 -2.5 16t-13.5 6l-50 13l8 54h149v-432q0 -20 14 -21l53 -7v-54zM414 728l56 -22
q-35 -133 -169 -133q-130 0 -165 133l60 21q16 -47 41 -68t67 -21t67.5 21.5t42.5 68.5z" />
    <glyph glyph-name="Uring" unicode="&#x16e;" horiz-adv-x="788" 
d="M571 252v391q0 12 -3 15.5t-13 4.5l-63 7v54h248v-54l-67 -8q-11 -1 -13.5 -4.5t-2.5 -14.5v-401q0 -254 -267 -254q-137 0 -198 63.5t-61 192.5v399q0 12 -3 15.5t-13 4.5l-63 7v54h254v-54l-67 -8q-11 -1 -13.5 -4.5t-2.5 -14.5v-388q0 -100 42.5 -144.5t130.5 -44.5
q91 0 133 42t42 144zM491 834q0 -39 -24 -62t-63 -23t-63 22.5t-24 60.5q0 41 25 64t62 23q38 0 62.5 -22.5t24.5 -62.5zM404 796q36 0 36 38t-36 38q-37 0 -37 -39q0 -37 37 -37z" />
    <glyph glyph-name="uring" unicode="&#x16f;" horiz-adv-x="627" 
d="M593 0h-141l-8 68l-2 1q-96 -81 -193 -81q-79 0 -111.5 45.5t-32.5 136.5v254q0 13 -2.5 17t-13.5 6l-52 13l8 54h151v-323q0 -69 16.5 -99t61.5 -30q85 0 161 87v276q0 12 -2.5 16t-13.5 6l-50 13l8 54h149v-432q0 -20 14 -21l53 -7v-54zM390 671q0 -39 -24 -62.5
t-63 -23.5t-63 22.5t-24 60.5q0 41 25 64t62 23q38 0 62.5 -22t24.5 -62zM303 632q36 0 36 39q0 37 -36 37q-37 0 -37 -39q0 -37 37 -37z" />
    <glyph glyph-name="Uhungarumlaut" unicode="&#x170;" horiz-adv-x="788" 
d="M571 252v391q0 12 -3 15.5t-13 4.5l-63 7v54h248v-54l-67 -8q-11 -1 -13.5 -4.5t-2.5 -14.5v-401q0 -254 -267 -254q-137 0 -198 63.5t-61 192.5v399q0 12 -3 15.5t-13 4.5l-63 7v54h254v-54l-67 -8q-11 -1 -13.5 -4.5t-2.5 -14.5v-388q0 -100 42.5 -144.5t130.5 -44.5
q91 0 133 42t42 144zM470 910l-171 -145l-41 37l150 167zM647 897l-181 -133l-37 38l160 157z" />
    <glyph glyph-name="uhungarumlaut" unicode="&#x171;" horiz-adv-x="627" 
d="M593 0h-141l-8 68l-2 1q-96 -81 -193 -81q-79 0 -111.5 45.5t-32.5 136.5v254q0 13 -2.5 17t-13.5 6l-52 13l8 54h151v-323q0 -69 16.5 -99t61.5 -30q85 0 161 87v276q0 12 -2.5 16t-13.5 6l-50 13l8 54h149v-432q0 -20 14 -21l53 -7v-54zM354 727l-159 -159l-42 33
l135 180zM525 727l-159 -159l-43 33l136 180z" />
    <glyph glyph-name="Uogonek" unicode="&#x172;" horiz-adv-x="788" 
d="M514 -140l21 -56q-47 -22 -93 -22q-43 0 -67 20t-24 59q0 62 75 129q-24 -2 -36 -2q-137 0 -198 63.5t-61 192.5v399q0 12 -3 15.5t-13 4.5l-63 7v54h254v-54l-67 -8q-11 -1 -13.5 -4.5t-2.5 -14.5v-388q0 -100 42.5 -144.5t130.5 -44.5q91 0 133 42t42 144v391
q0 12 -3 15.5t-13 4.5l-63 7v54h248v-54l-67 -8q-11 -1 -13.5 -4.5t-2.5 -14.5v-401q0 -154 -125 -231q-34 -21 -66 -59.5t-32 -71.5q0 -32 31 -32q20 0 49 12z" />
    <glyph glyph-name="uogonek" unicode="&#x173;" horiz-adv-x="627" 
d="M593 0q-99 -63 -99 -120q0 -32 31 -32q20 0 49 12l21 -56q-47 -22 -93 -22q-43 0 -67 20t-24 59q0 76 97 139h-56l-8 68l-2 1q-96 -81 -193 -81q-79 0 -111.5 45.5t-32.5 136.5v254q0 13 -2.5 17t-13.5 6l-52 13l8 54h151v-323q0 -69 16.5 -99t61.5 -30q85 0 161 87v276
q0 12 -2.5 16t-13.5 6l-50 13l8 54h149v-432q0 -20 14 -21l53 -7v-54z" />
    <glyph glyph-name="Wcircumflex" unicode="&#x174;" horiz-adv-x="993" 
d="M749 0h-121l-126 464l-134 -464h-114l-166 641q-4 16 -20 19l-59 10l10 54h251v-54l-89 -10l134 -561l136 479h103l136 -487l141 569l-91 10l10 54h234v-54l-52 -9q-11 -2 -15 -5.5t-7 -14.5zM624 766l-119 83l-119 -83l-40 41l117 102h84l117 -102z" />
    <glyph glyph-name="wcircumflex" unicode="&#x175;" horiz-adv-x="840" 
d="M636 0h-107l-96 396l-110 -396h-110l-141 433q-4 13 -21 17l-43 9l12 55h201v-55l-64 -8l112 -359l115 407h105l97 -406l111 358l-65 8l11 55h189v-55l-36 -6q-12 -2 -17 -6t-8 -14zM603 610l-44 -38l-125 101l-125 -101l-44 38l127 123h84z" />
    <glyph glyph-name="Ycircumflex" unicode="&#x176;" horiz-adv-x="619" 
d="M478 0h-319v54l95 7q10 1 13 4.5t3 15.5v199l-200 362q-7 13 -24 17l-45 11l10 54h224v-54l-75 -9l159 -299l154 299l-74 9l10 54h209v-54l-42 -11q-17 -5 -25 -19l-189 -357v-201q0 -12 2.5 -15.5t13.5 -4.5l100 -8v-54zM438 766l-119 83l-119 -83l-40 41l117 102h84
l117 -102z" />
    <glyph glyph-name="ycircumflex" unicode="&#x177;" horiz-adv-x="582" 
d="M369 -212h-271v55l72 9q13 1 22 21l58 133l-180 426q-5 13 -21 17l-41 10l12 55h207v-55l-66 -8l133 -336l139 336l-68 8l11 55h198v-55l-34 -5q-19 -3 -25 -17l-243 -585l97 -10v-54zM462 610l-44 -38l-125 101l-125 -101l-44 38l127 123h84z" />
    <glyph glyph-name="Ydieresis" unicode="&#x178;" horiz-adv-x="619" 
d="M478 0h-319v54l95 7q10 1 13 4.5t3 15.5v199l-200 362q-7 13 -24 17l-45 11l10 54h224v-54l-75 -9l159 -299l154 299l-74 9l10 54h209v-54l-42 -11q-17 -5 -25 -19l-189 -357v-201q0 -12 2.5 -15.5t13.5 -4.5l100 -8v-54zM274 837q0 -25 -15 -40t-41 -15q-25 0 -40.5 15
t-15.5 40t15.5 39.5t40.5 14.5q26 0 41 -14.5t15 -39.5zM476 837q0 -25 -15 -40t-41 -15t-41 15t-15 40t15 39.5t41 14.5t41 -14.5t15 -39.5z" />
    <glyph glyph-name="Zacute" unicode="&#x179;" horiz-adv-x="644" 
d="M588 0h-538v61l416 592h-300q-14 0 -16 -11l-19 -93l-68 -3v178h515v-63l-413 -590h320q14 0 16 11l19 107h68v-189zM449 867l-204 -101l-29 46l188 129z" />
    <glyph glyph-name="zacute" unicode="&#x17a;" horiz-adv-x="488" 
d="M455 0h-416v54l299 393h-198q-9 0 -11 -13l-12 -63l-68 -4v147h400v-56l-297 -391h211q9 0 11 13l12 74l69 3v-157zM365 708l-176 -141l-39 37l155 164z" />
    <glyph glyph-name="Zdotaccent" unicode="&#x17b;" horiz-adv-x="644" 
d="M588 0h-538v61l416 592h-300q-14 0 -16 -11l-19 -93l-68 -3v178h515v-63l-413 -590h320q14 0 16 11l19 107h68v-189zM382 845q0 -30 -17 -46.5t-48 -16.5t-47.5 16.5t-16.5 46.5q0 63 64 63q65 0 65 -63z" />
    <glyph glyph-name="zdotaccent" unicode="&#x17c;" horiz-adv-x="488" 
d="M455 0h-416v54l299 393h-198q-9 0 -11 -13l-12 -63l-68 -4v147h400v-56l-297 -391h211q9 0 11 13l12 74l69 3v-157zM314 690q0 -31 -17 -47.5t-48 -16.5q-64 0 -64 64q0 30 16.5 46.5t47.5 16.5t48 -16.5t17 -46.5z" />
    <glyph glyph-name="Zcaron" unicode="&#x17d;" horiz-adv-x="644" 
d="M588 0h-538v61l416 592h-300q-14 0 -16 -11l-19 -93l-68 -3v178h515v-63l-413 -590h320q14 0 16 11l19 107h68v-189zM477 879l-118 -102h-84l-117 102l40 41l119 -83l119 83z" />
    <glyph glyph-name="zcaron" unicode="&#x17e;" horiz-adv-x="488" 
d="M455 0h-416v54l299 393h-198q-9 0 -11 -13l-12 -63l-68 -4v147h400v-56l-297 -391h211q9 0 11 13l12 74l69 3v-157zM291 578h-84l-125 121l43 40l124 -101l126 101l44 -39z" />
    <glyph glyph-name="longs" unicode="&#x17f;" horiz-adv-x="406" 
d="M344 0h-304v55l64 6q10 1 13 4.5t3 15.5v509q0 176 183 176q71 0 110.5 -25.5t39.5 -94.5l-85 -11q0 38 -16 50t-53 12q-52 0 -70 -25t-18 -79v-510q0 -12 2.5 -15.5t13.5 -4.5l117 -9v-54z" />
    <glyph glyph-name="florin" unicode="&#x192;" horiz-adv-x="496" 
d="M404 311h-149l-39 -227q-16 -93 -55 -134t-119 -41q-35 0 -73 11.5t-57 26.5l28 62q49 -31 103 -31q35 0 54 19t27 65l42 239q2 10 -6 10h-93l12 67h101l19 100q17 88 56.5 129t121.5 41q72 0 133 -33l-22 -128l-61 4l-1 67q0 12 -9 15q-19 7 -45 7q-41 0 -59.5 -25
t-28.5 -77l-16 -90q-1 -10 7 -10h141z" />
    <glyph glyph-name="Scommaaccent" unicode="&#x218;" horiz-adv-x="584" 
d="M509 532l-69 6l-15 85q-4 17 -11 21q-30 17 -95 17q-76 0 -114.5 -30.5t-38.5 -85.5q0 -30 11 -51.5t36.5 -37t46 -23.5t58.5 -20l44 -13.5t41.5 -16t41 -21t33.5 -26t29 -35t16.5 -45t7.5 -57.5q0 -109 -74 -160t-191 -51q-62 0 -122 12.5t-88 25.5v164h67l19 -88
q2 -10 6 -14t14 -8q51 -17 112 -17q163 0 163 126q0 59 -37 87.5t-110 49.5q-98 29 -131 48q-87 50 -87 159q0 102 70 153t181 51q94 0 186 -35v-170zM284 -268l-46 16l22 87q3 8 -5 11l-34 14l22 80q54 -2 79.5 -14t25.5 -49q0 -24 -17 -56z" />
    <glyph glyph-name="scommaaccent" unicode="&#x219;" horiz-adv-x="460" 
d="M410 367l-67 4l-12 62q-2 11 -10 13q-31 11 -78 11q-53 0 -79.5 -20.5t-26.5 -54.5q0 -16 7 -28.5t14.5 -19.5t27.5 -15t28.5 -10.5t36.5 -9.5q7 -2 11 -3q38 -10 60 -18t49.5 -24.5t40.5 -44t13 -65.5q0 -81 -57.5 -118.5t-145.5 -37.5q-55 0 -109.5 12t-71.5 22v133
l67 -4l12 -69q2 -10 12 -14q42 -16 98 -16q110 0 110 79q0 17 -7 31t-16.5 22t-28 15.5t-31.5 11t-38 9.5q-32 7 -48.5 11.5t-43 16.5t-39.5 26t-24 38t-11 56q0 80 56.5 118t142.5 38q93 0 158 -28v-129zM230 -268l-46 16l22 87q3 8 -5 11l-34 14l22 80q54 -2 79.5 -14
t25.5 -49q0 -24 -17 -56z" />
    <glyph glyph-name="uni021A" unicode="&#x21a;" horiz-adv-x="660" 
d="M502 0h-337v55l103 7q10 1 13 4.5t3 15.5v571h-155q-14 0 -16 -11l-16 -87h-67v169h600v-169h-67l-16 87q-2 11 -16 11h-155v-571q0 -11 2.5 -14.5t13.5 -4.5l110 -8v-55zM324 -268l-46 16l22 87q3 8 -5 11l-34 14l22 80q54 -2 79.5 -14t25.5 -49q0 -24 -17 -56z" />
    <glyph glyph-name="uni021B" unicode="&#x21b;" horiz-adv-x="412" 
d="M362 83l22 -64q-78 -31 -139 -31q-139 0 -139 135v312q0 10 -8 10h-73v58q58 7 80.5 36.5t32.5 106.5h59v-122q0 -10 8 -10h147v-69h-155v-295q0 -48 15 -67.5t57 -19.5q44 0 93 20zM236 -268l-46 16l22 87q3 8 -5 11l-34 14l22 80q54 -2 79.5 -14t25.5 -49
q0 -24 -17 -56z" />
    <glyph glyph-name="dotlessj" unicode="&#x237;" horiz-adv-x="287" 
d="M106 -47v468q0 17 -13 21l-64 19l9 53h159v-579q0 -82 -35.5 -120t-112.5 -38q-40 0 -78 13t-58 29l36 59q36 -29 87 -29q41 0 55.5 23.5t14.5 80.5z" />
    <glyph glyph-name="apostrophe" unicode="&#x2bc;" horiz-adv-x="500" 
d="M247 513l-41 14l24 77q3 9 -3 12l-30 11l18 66q46 -1 69 -11.5t23 -40.5q0 -19 -13 -42z" />
    <glyph glyph-name="circumflex" unicode="&#x2c6;" horiz-adv-x="500" 
d="M419 610l-44 -38l-125 101l-125 -101l-44 38l127 123h84z" />
    <glyph glyph-name="caron" unicode="&#x2c7;" horiz-adv-x="500" 
d="M290 578h-84l-125 121l43 40l124 -101l126 101l44 -39z" />
    <glyph glyph-name="uni02C9" unicode="&#x2c9;" horiz-adv-x="500" 
d="M403 611h-307v69h307v-69z" />
    <glyph glyph-name="breve" unicode="&#x2d8;" horiz-adv-x="500" 
d="M361 728l56 -22q-35 -133 -169 -133q-130 0 -165 133l60 21q16 -47 41 -68t67 -21t67.5 21.5t42.5 68.5z" />
    <glyph glyph-name="dotaccent" unicode="&#x2d9;" horiz-adv-x="500" 
d="M315 690q0 -31 -17 -47.5t-48 -16.5q-64 0 -64 64q0 30 16.5 46.5t47.5 16.5t48 -16.5t17 -46.5z" />
    <glyph glyph-name="ring" unicode="&#x2da;" horiz-adv-x="500" 
d="M337 671q0 -39 -24 -62.5t-63 -23.5t-63 22.5t-24 60.5q0 41 25 64t62 23q38 0 62.5 -22t24.5 -62zM250 632q36 0 36 39q0 37 -36 37q-37 0 -37 -39q0 -37 37 -37z" />
    <glyph glyph-name="ogonek" unicode="&#x2db;" horiz-adv-x="500" 
d="M317 -140l21 -56q-47 -22 -93 -22q-43 0 -67 20t-24 59q0 74 114 159l58 -16q-89 -73 -89 -124q0 -32 31 -32q20 0 49 12z" />
    <glyph glyph-name="tilde" unicode="&#x2dc;" horiz-adv-x="500" 
d="M425 673l-23 -35q-33 -50 -64 -50q-19 0 -43 7q-20 5 -65.5 17.5t-57.5 15.5q-10 1 -16 -5l-39 -38l-42 30l29 44q27 42 60 42q12 0 42 -7q115 -30 124 -32q9 -3 15 3l36 37z" />
    <glyph glyph-name="hungarumlaut" unicode="&#x2dd;" horiz-adv-x="500" 
d="M269 727l-159 -159l-42 33l135 180zM440 727l-159 -159l-43 33l136 180z" />
    <glyph glyph-name="uni0394" unicode="&#x394;" horiz-adv-x="670" 
d="M646 0h-622l250 724h114zM330 640l-191 -564h390z" />
    <glyph glyph-name="uni03A9" unicode="&#x3a9;" horiz-adv-x="815" 
d="M765 0h-283v150q40 16 76.5 47t66.5 90t30 131q0 120 -62 181t-173 61q-113 0 -180.5 -66.5t-67.5 -191.5q0 -97 47.5 -160t121.5 -92v-150h-291v160h65l16 -79q2 -11 16 -11h120v49q-92 35 -141 110.5t-49 174.5q0 149 93 241t252 92q163 0 245 -84t82 -226
q0 -103 -54.5 -183.5t-139.5 -124.5v-49h114q14 0 16 11l15 79h65v-160z" />
    <glyph glyph-name="uni03BC" unicode="&#x3bc;" horiz-adv-x="629" 
d="M589 0h-142l-8 66l-4 1q-44 -42 -77 -60.5t-73 -18.5q-67 0 -98 43h-3l9 -207h-93v690h91v-335q0 -57 18.5 -89t71.5 -32q69 0 150 91v365h91v-432q0 -20 13 -21l54 -7v-54z" />
    <glyph glyph-name="pi" unicode="&#x3c0;" horiz-adv-x="666" 
d="M611 0h-156v442h-235v-442h-156v54l49 7q10 1 13 3.5t3 10.5v357q0 12 -3 15.5t-13 4.5l-59 7v55h570v-55l-62 -8q-11 -1 -13.5 -4.5t-2.5 -14.5v-351q0 -12 2.5 -15.5t13.5 -4.5l49 -7v-54z" />
    <glyph glyph-name="Wgrave" unicode="&#x1e80;" horiz-adv-x="993" 
d="M749 0h-121l-126 464l-134 -464h-114l-166 641q-4 16 -20 19l-59 10l10 54h251v-54l-89 -10l134 -561l136 479h103l136 -487l141 569l-91 10l10 54h234v-54l-52 -9q-11 -2 -15 -5.5t-7 -14.5zM581 765l-204 102l46 73l188 -128z" />
    <glyph glyph-name="wgrave" unicode="&#x1e81;" horiz-adv-x="840" 
d="M636 0h-107l-96 396l-110 -396h-110l-141 433q-4 13 -21 17l-43 9l12 55h201v-55l-64 -8l112 -359l115 407h105l97 -406l111 358l-65 8l11 55h189v-55l-36 -6q-12 -2 -17 -6t-8 -14zM527 604l-39 -37l-176 141l61 60z" />
    <glyph glyph-name="Wacute" unicode="&#x1e82;" horiz-adv-x="993" 
d="M749 0h-121l-126 464l-134 -464h-114l-166 641q-4 16 -20 19l-59 10l10 54h251v-54l-89 -10l134 -561l136 479h103l136 -487l141 569l-91 10l10 54h234v-54l-52 -9q-11 -2 -15 -5.5t-7 -14.5zM637 867l-204 -101l-29 46l188 129z" />
    <glyph glyph-name="wacute" unicode="&#x1e83;" horiz-adv-x="840" 
d="M636 0h-107l-96 396l-110 -396h-110l-141 433q-4 13 -21 17l-43 9l12 55h201v-55l-64 -8l112 -359l115 407h105l97 -406l111 358l-65 8l11 55h189v-55l-36 -6q-12 -2 -17 -6t-8 -14zM550 708l-176 -141l-39 37l155 164z" />
    <glyph glyph-name="Wdieresis" unicode="&#x1e84;" horiz-adv-x="993" 
d="M749 0h-121l-126 464l-134 -464h-114l-166 641q-4 16 -20 19l-59 10l10 54h251v-54l-89 -10l134 -561l136 479h103l136 -487l141 569l-91 10l10 54h234v-54l-52 -9q-11 -2 -15 -5.5t-7 -14.5zM460 837q0 -25 -15 -40t-41 -15q-25 0 -40.5 15t-15.5 40t15.5 39.5
t40.5 14.5q26 0 41 -14.5t15 -39.5zM662 837q0 -25 -15 -40t-41 -15t-41 15t-15 40t15 39.5t41 14.5t41 -14.5t15 -39.5z" />
    <glyph glyph-name="wdieresis" unicode="&#x1e85;" horiz-adv-x="840" 
d="M636 0h-107l-96 396l-110 -396h-110l-141 433q-4 13 -21 17l-43 9l12 55h201v-55l-64 -8l112 -359l115 407h105l97 -406l111 358l-65 8l11 55h189v-55l-36 -6q-12 -2 -17 -6t-8 -14zM389 660q0 -25 -15.5 -40t-40.5 -15t-40.5 15t-15.5 40t15.5 40t40.5 15q26 0 41 -15
t15 -40zM591 660q0 -25 -15.5 -40t-40.5 -15t-40.5 15t-15.5 40t15 40t41 15t41 -15t15 -40z" />
    <glyph glyph-name="Ygrave" unicode="&#x1ef2;" horiz-adv-x="619" 
d="M478 0h-319v54l95 7q10 1 13 4.5t3 15.5v199l-200 362q-7 13 -24 17l-45 11l10 54h224v-54l-75 -9l159 -299l154 299l-74 9l10 54h209v-54l-42 -11q-17 -5 -25 -19l-189 -357v-201q0 -12 2.5 -15.5t13.5 -4.5l100 -8v-54zM375 765l-204 102l46 73l188 -128z" />
    <glyph glyph-name="ygrave" unicode="&#x1ef3;" horiz-adv-x="582" 
d="M369 -212h-271v55l72 9q13 1 22 21l58 133l-180 426q-5 13 -21 17l-41 10l12 55h207v-55l-66 -8l133 -336l139 336l-68 8l11 55h198v-55l-34 -5q-19 -3 -25 -17l-243 -585l97 -10v-54zM376 604l-39 -37l-176 141l61 60z" />
    <glyph glyph-name="endash" unicode="&#x2013;" horiz-adv-x="500" 
d="M499 247h-499v69h499v-69z" />
    <glyph glyph-name="emdash" unicode="&#x2014;" horiz-adv-x="1000" 
d="M999 247h-999v69h999v-69z" />
    <glyph glyph-name="quoteleft" unicode="&#x2018;" horiz-adv-x="180" 
d="M156 627l-20 -74q-51 2 -75 13.5t-24 45.5q0 18 15 48l51 101l44 -16l-27 -95q-2 -7 5 -10z" />
    <glyph glyph-name="quoteright" unicode="&#x2019;" horiz-adv-x="179" 
d="M84 553l-44 15l27 94q3 8 -4 11l-32 13l20 75q34 -2 52.5 -6t32.5 -17t14 -37q0 -21 -13 -47z" />
    <glyph glyph-name="quotesinglbase" unicode="&#x201a;" horiz-adv-x="180" 
d="M88 -122l-44 15l27 94q3 8 -5 11l-32 13l20 75q34 -2 53 -6t33 -17t14 -37q0 -18 -15 -48z" />
    <glyph glyph-name="quotedblleft" unicode="&#x201c;" horiz-adv-x="330" 
d="M156 627l-20 -74q-51 2 -75 13.5t-24 45.5q0 18 15 48l51 101l44 -16l-27 -95q-2 -7 5 -10zM306 627l-20 -74q-51 2 -75 13.5t-24 45.5q0 18 15 48l51 101l44 -16l-27 -95q-2 -7 5 -10z" />
    <glyph glyph-name="quotedblright" unicode="&#x201d;" horiz-adv-x="329" 
d="M84 553l-44 15l27 94q3 8 -4 11l-32 13l20 75q34 -2 52.5 -6t32.5 -17t14 -37q0 -21 -13 -47zM234 553l-44 15l27 94q3 8 -4 11l-32 13l20 75q34 -2 52.5 -6t32.5 -17t14 -37q0 -21 -13 -47z" />
    <glyph glyph-name="quotedblbase" unicode="&#x201e;" horiz-adv-x="330" 
d="M88 -122l-44 15l27 94q3 8 -5 11l-32 13l20 75q34 -2 53 -6t33 -17t14 -37q0 -18 -15 -48zM238 -122l-44 15l27 94q3 8 -5 11l-32 13l20 75q34 -2 53 -6t33 -17t14 -37q0 -18 -15 -48z" />
    <glyph glyph-name="dagger" unicode="&#x2020;" horiz-adv-x="393" 
d="M231 -83h-69v191l-15 212l33 112h33l33 -112l-15 -213v-190zM180 465v-33l-84 -21h-74v75h74zM180 465l-21 96v84h75v-84l-21 -96h-33zM371 411h-74l-84 21v33l84 21h74v-75z" />
    <glyph glyph-name="daggerdbl" unicode="&#x2021;" horiz-adv-x="419" 
d="M193 432h33l33 -109v-77l-33 -116h-33v-33h33l21 -96v-84h-75v84l21 96l-84 -21h-74v75h74l84 -21l-33 116v77l33 109l-84 -21h-74v75h74l84 -21l-21 96v84h75v-84l-21 -96l84 21h74v-75h-74l-84 21v33h-33v-33zM384 76h-74l-84 21v33l84 21h74v-75z" />
    <glyph glyph-name="bullet" unicode="&#x2022;" horiz-adv-x="371" 
d="M323 280q0 -66 -35.5 -100t-102.5 -34q-66 0 -101.5 34t-35.5 100t35.5 100t101.5 34q67 0 102.5 -34t35.5 -100z" />
    <glyph glyph-name="ellipsis" unicode="&#x2026;" horiz-adv-x="565" 
d="M166 51q0 -63 -66 -63t-66 63t66 63t66 -63zM349 51q0 -63 -66 -63t-66 63t66 63t66 -63zM532 51q0 -63 -66 -63t-66 63t66 63t66 -63z" />
    <glyph glyph-name="perthousand" unicode="&#x2030;" horiz-adv-x="1078" 
d="M186 295q-141 0 -141 158q0 77 38.5 122t109.5 45q141 0 141 -158q0 -77 -38.5 -122t-109.5 -45zM230 -17h-87l377 638h86zM189 352q71 0 71 107q0 103 -68 103q-39 0 -56 -30t-17 -75q0 -105 70 -105zM558 -12q-141 0 -141 158q0 77 38.5 122t109.5 45q141 0 141 -158
q0 -77 -38.5 -122t-109.5 -45zM562 45q71 0 71 107q0 103 -69 103q-38 0 -55 -30t-17 -75q0 -105 70 -105zM885 -12q-141 0 -141 158q0 77 38.5 122t109.5 45q141 0 141 -158q0 -77 -38.5 -122t-109.5 -45zM889 45q71 0 71 107q0 103 -69 103q-38 0 -55 -30t-17 -75
q0 -105 70 -105z" />
    <glyph glyph-name="guilsinglleft" unicode="&#x2039;" horiz-adv-x="278" 
d="M226 103h-82l-87 156l89 149h82l-75 -137q-6 -10 -1 -19z" />
    <glyph glyph-name="guilsinglright" unicode="&#x203a;" horiz-adv-x="277" 
d="M132 103h-82l74 142q6 10 1 19l-75 144h82l88 -153z" />
    <glyph glyph-name="fraction" unicode="&#x2044;" horiz-adv-x="173" 
d="M-52 -17h-85l358 741h84z" />
    <glyph glyph-name="zerosuperior" unicode="&#x2070;" horiz-adv-x="407" 
d="M201 342q-94 0 -129 57.5t-35 169.5q0 111 39 171t132 60t127.5 -57t34.5 -166q0 -116 -37.5 -175.5t-131.5 -59.5zM203 405q48 0 64.5 39.5t16.5 127.5q0 89 -15 127.5t-63 38.5q-49 0 -66 -40t-17 -128t15.5 -126.5t64.5 -38.5z" />
    <glyph glyph-name="foursuperior" unicode="&#x2074;" horiz-adv-x="388" 
d="M301 350h-77v84h-198v63l181 291h95v-290h56v-65h-57v-83zM224 498v200l-122 -200h122z" />
    <glyph glyph-name="fivesuperior" unicode="&#x2075;" horiz-adv-x="366" 
d="M308 724h-179l-10 -124q40 27 89 27q57 0 90.5 -34.5t33.5 -99.5q0 -67 -41.5 -109t-121.5 -42q-101 0 -156 57l45 51q45 -43 105 -43q85 0 85 82q0 76 -68 76q-42 0 -74 -34l-57 23l15 235h244v-65z" />
    <glyph glyph-name="sixsuperior" unicode="&#x2076;" horiz-adv-x="386" 
d="M344 697l-77 -9q0 30 -11.5 41.5t-37.5 11.5q-88 0 -92 -147q48 31 101 31q60 0 92 -34t32 -96q0 -71 -41 -112t-110 -41q-159 0 -159 224q0 33 4.5 63t16.5 62t31.5 55.5t52 38.5t74.5 15q124 0 124 -103zM126 534q1 -26 4 -44.5t10 -40.5t23.5 -34t40.5 -12
q31 0 47.5 23.5t16.5 59.5q0 40 -14.5 59t-47.5 19q-40 0 -80 -30z" />
    <glyph glyph-name="sevensuperior" unicode="&#x2077;" horiz-adv-x="345" 
d="M187 350h-85q11 120 55 222t90 152h-146q-8 0 -10 -8l-9 -53l-56 -4v130h311v-58q-59 -59 -100.5 -161.5t-49.5 -219.5z" />
    <glyph glyph-name="eightsuperior" unicode="&#x2078;" horiz-adv-x="361" 
d="M254 579q39 -22 59 -47t20 -63q0 -59 -45.5 -93t-115.5 -34q-68 0 -106 30.5t-38 84.5q0 68 75 123q-59 38 -59 102q0 54 39.5 86t99.5 32q67 0 100.5 -29t33.5 -77q0 -60 -63 -115zM156 551q-57 -44 -57 -89q0 -29 19.5 -46.5t59.5 -17.5q36 0 54.5 17.5t18.5 46.5
q0 20 -14 36.5t-28 25t-43 22.5q-7 3 -10 5zM199 607q48 45 48 84q0 53 -63 53q-27 0 -44 -15.5t-17 -39.5q0 -27 18.5 -44.5t57.5 -37.5z" />
    <glyph glyph-name="ninesuperior" unicode="&#x2079;" horiz-adv-x="387" 
d="M43 387l36 52q42 -35 95 -35q50 0 68 37t20 96q-43 -31 -100 -31q-59 0 -92.5 37.5t-33.5 102.5q0 69 40.5 111.5t111.5 42.5q46 0 78.5 -17t49.5 -48.5t24 -69t7 -86.5q0 -237 -170 -237q-86 0 -134 45zM261 597q0 20 -1 31q-6 111 -74 111q-33 0 -50 -23t-17 -61
q0 -88 62 -88q48 0 80 30z" />
    <glyph glyph-name="plussuperior" unicode="&#x207a;" horiz-adv-x="315" 
d="M192 443h-69v96h-93v65h93v93h69v-93h93v-65h-93v-96z" />
    <glyph glyph-name="minussuperior" unicode="&#x207b;" horiz-adv-x="315" 
d="M285 539h-255v65h255v-65z" />
    <glyph glyph-name="equalsuperior" unicode="&#x207c;" horiz-adv-x="314" 
d="M284 458h-254v66h254v-66zM284 574h-254v66h254v-66z" />
    <glyph glyph-name="parenleftsuperior" unicode="&#x207d;" horiz-adv-x="240" 
d="M222 308l-63 -36q-105 140 -105 288t110 296l62 -37q-85 -127 -85 -258q0 -75 20 -130.5t61 -122.5z" />
    <glyph glyph-name="parenrightsuperior" unicode="&#x207e;" horiz-adv-x="239" 
d="M78 272l-63 36q83 126 83 257q0 71 -20.5 129.5t-62.5 124.5l63 37q107 -138 107 -292q0 -148 -107 -292z" />
    <glyph glyph-name="zeroinferior" unicode="&#x2080;" horiz-adv-x="407" 
d="M201 -155q-94 0 -129 57.5t-35 169.5q0 111 39 171t132 60t127.5 -57t34.5 -166q0 -116 -37.5 -175.5t-131.5 -59.5zM203 -92q48 0 64.5 39.5t16.5 127.5q0 89 -15 127.5t-63 38.5q-49 0 -66 -40t-17 -128t15.5 -126.5t64.5 -38.5z" />
    <glyph glyph-name="oneinferior" unicode="&#x2081;" horiz-adv-x="261" 
d="M246 -147h-221v47l59 6q7 1 8.5 3t1.5 10v302q0 11 -9 14l-60 11l6 47h147v-374q0 -8 1.5 -10t8.5 -3l58 -6v-47z" />
    <glyph glyph-name="twoinferior" unicode="&#x2082;" horiz-adv-x="359" 
d="M335 -147h-308v50l128 151l44.5 56.5t22.5 38t10 41.5q0 53 -66 53q-32 0 -46.5 -14t-14.5 -49l-72 8q0 115 140 115q142 0 142 -107q0 -40 -19.5 -74.5t-58.5 -80.5l-112 -133h132q7 0 10 7l9 52h59v-114z" />
    <glyph glyph-name="threeinferior" unicode="&#x2083;" horiz-adv-x="363" 
d="M243 89v-3q87 -19 87 -108q0 -63 -44.5 -98t-116.5 -35q-99 0 -154 58l45 51q45 -45 105 -45q81 0 81 73q0 70 -83 70q-23 0 -46 -4v58l36 4q85 9 85 76q0 57 -66 57q-32 0 -46.5 -14t-14.5 -48l-75 8q0 62 40.5 88t100.5 26q143 0 143 -109q0 -40 -21 -67t-56 -38z" />
    <glyph glyph-name="fourinferior" unicode="&#x2084;" horiz-adv-x="388" 
d="M301 -147h-77v84h-198v63l181 291h95v-290h56v-65h-57v-83zM224 1v200l-122 -200h122z" />
    <glyph glyph-name="fiveinferior" unicode="&#x2085;" horiz-adv-x="366" 
d="M308 227h-179l-10 -124q40 27 89 27q57 0 90.5 -34.5t33.5 -99.5q0 -67 -41.5 -109t-121.5 -42q-101 0 -156 57l45 51q45 -43 105 -43q85 0 85 82q0 76 -68 76q-42 0 -74 -34l-57 23l15 235h244v-65z" />
    <glyph glyph-name="sixinferior" unicode="&#x2086;" horiz-adv-x="386" 
d="M344 200l-77 -9q0 30 -11.5 41.5t-37.5 11.5q-88 0 -92 -147q48 31 101 31q60 0 92 -34t32 -96q0 -71 -41 -112t-110 -41q-159 0 -159 224q0 33 4.5 63t16.5 62t31.5 55.5t52 38.5t74.5 15q124 0 124 -103zM126 37q1 -26 4 -44.5t10 -40.5t23.5 -34t40.5 -12
q31 0 47.5 23.5t16.5 59.5q0 40 -14.5 59t-47.5 19q-40 0 -80 -30z" />
    <glyph glyph-name="seveninferior" unicode="&#x2087;" horiz-adv-x="345" 
d="M187 -147h-85q11 120 55 222t90 152h-146q-8 0 -10 -8l-9 -53l-56 -4v130h311v-58q-59 -59 -100.5 -161.5t-49.5 -219.5z" />
    <glyph glyph-name="eightinferior" unicode="&#x2088;" horiz-adv-x="361" 
d="M254 82q39 -22 59 -47t20 -63q0 -59 -45.5 -93t-115.5 -34q-68 0 -106 30.5t-38 84.5q0 68 75 123q-59 38 -59 102q0 54 39.5 86t99.5 32q67 0 100.5 -29t33.5 -77q0 -60 -63 -115zM156 54q-57 -44 -57 -89q0 -29 19.5 -46.5t59.5 -17.5q36 0 54.5 17.5t18.5 46.5
q0 20 -14 36.5t-28 25t-43 22.5q-7 3 -10 5zM199 110q48 45 48 84q0 53 -63 53q-27 0 -44 -15.5t-17 -39.5q0 -27 18.5 -44.5t57.5 -37.5z" />
    <glyph glyph-name="nineinferior" unicode="&#x2089;" horiz-adv-x="387" 
d="M43 -110l36 52q42 -35 95 -35q50 0 68 37t20 96q-43 -31 -100 -31q-59 0 -92.5 37.5t-33.5 102.5q0 69 40.5 111.5t111.5 42.5q46 0 78.5 -17t49.5 -48.5t24 -69t7 -86.5q0 -237 -170 -237q-86 0 -134 45zM261 100q0 20 -1 31q-6 111 -74 111q-33 0 -50 -23t-17 -61
q0 -88 62 -88q48 0 80 30z" />
    <glyph glyph-name="parenleftinferior" unicode="&#x208d;" horiz-adv-x="240" 
d="M222 -189l-63 -36q-105 140 -105 288t110 296l62 -37q-85 -128 -85 -258q0 -75 20 -130.5t61 -122.5z" />
    <glyph glyph-name="parenrightinferior" unicode="&#x208e;" horiz-adv-x="239" 
d="M78 -225l-63 36q83 126 83 257q0 71 -20.5 129.5t-62.5 124.5l63 37q107 -138 107 -292q0 -148 -107 -292z" />
    <glyph glyph-name="Euro" unicode="&#x20ac;" horiz-adv-x="531" 
d="M365 348h-195v-18q0 -35 1 -51h185l-12 -62h-165q31 -156 160 -156q48 0 71 10q11 3 13 17l13 74l64 4v-145q-23 -11 -70 -22t-96 -11q-216 0 -251 229h-84l12 62h66q-1 11 -1 36q0 22 1 33h-57l12 62h52q21 118 91 178t169 60q94 0 157 -34v-145l-64 4l-13 74
q-3 13 -14 17q-28 10 -70 10q-63 0 -106 -40.5t-58 -123.5h201z" />
    <glyph glyph-name="afii61352" unicode="&#x2116;" horiz-adv-x="1120" 
d="M633 0h-107l-305 520v-438q0 -12 2.5 -15.5t13.5 -4.5l67 -8v-54h-243v54l63 7q10 1 13 5t3 15v466q0 12 -3 15.5t-13 4.5l-63 7v55h196l296 -505v423q0 12 -3 15.5t-13 4.5l-63 7v54h242v-54l-67 -8q-11 -1 -13.5 -4.5t-2.5 -14.5v-547zM714 110v73h308v-73h-308z
M865 223q-85 0 -125.5 47t-40.5 128q0 79 43.5 125.5t128.5 46.5q84 0 123.5 -45t39.5 -122q0 -85 -42 -132.5t-127 -47.5zM867 276q88 0 88 122q0 117 -85 117q-93 0 -93 -117q0 -122 90 -122z" />
    <glyph glyph-name="trademark" unicode="&#x2122;" horiz-adv-x="830" 
d="M277 348h-182v37l59 5v287h-84l-9 -54h-37v101h320v-101h-37l-8 54h-86v-287l64 -5v-37zM808 348h-146v36l48 5v223l-97 -183h-45l-95 184v-224l51 -5v-36h-147v36l40 5v291l-40 5v39h99l116 -233l119 233h95v-39l-42 -5v-291l44 -5v-36z" />
    <glyph glyph-name="Omega" unicode="&#x2126;" horiz-adv-x="815" 
d="M765 0h-283v150q40 16 76.5 47t66.5 90t30 131q0 120 -62 181t-173 61q-113 0 -180.5 -66.5t-67.5 -191.5q0 -97 47.5 -160t121.5 -92v-150h-291v160h65l16 -79q2 -11 16 -11h120v49q-92 35 -141 110.5t-49 174.5q0 149 93 241t252 92q163 0 245 -84t82 -226
q0 -103 -54.5 -183.5t-139.5 -124.5v-49h114q14 0 16 11l15 79h65v-160z" />
    <glyph glyph-name="onethird" unicode="&#x2153;" horiz-adv-x="890" 
d="M289 281h-221v47l59 6q7 1 8.5 3t1.5 10v302q0 11 -9 14l-60 11l6 47h147v-374q0 -8 1.5 -10t8.5 -3l58 -6v-47zM275 -17h-85l358 741h84zM735 236v-3q87 -19 87 -108q0 -63 -44.5 -98t-116.5 -35q-99 0 -154 58l45 51q45 -45 105 -45q81 0 81 73q0 70 -83 70
q-23 0 -46 -4v58l36 4q85 9 85 76q0 57 -66 57q-32 0 -46.5 -14t-14.5 -48l-75 8q0 62 40.5 88t100.5 26q143 0 143 -109q0 -40 -21 -67t-56 -38z" />
    <glyph glyph-name="twothirds" unicode="&#x2154;" horiz-adv-x="890" 
d="M344 281h-308v50l128 151l44.5 56.5t22.5 38t10 41.5q0 53 -66 53q-32 0 -46.5 -14t-14.5 -49l-72 8q0 115 140 115q142 0 142 -107q0 -40 -19.5 -74.5t-58.5 -80.5l-112 -133h132q7 0 10 7l9 52h59v-114zM321 -17h-85l358 741h84zM766 236v-3q87 -19 87 -108
q0 -63 -44.5 -98t-116.5 -35q-99 0 -154 58l45 51q45 -45 105 -45q81 0 81 73q0 70 -83 70q-23 0 -46 -4v58l36 4q85 9 85 76q0 57 -66 57q-32 0 -46.5 -14t-14.5 -48l-75 8q0 62 40.5 88t100.5 26q143 0 143 -109q0 -40 -21 -67t-56 -38z" />
    <glyph glyph-name="oneeighth" unicode="&#x215b;" horiz-adv-x="890" 
d="M284 281h-221v47l59 6q7 1 8.5 3t1.5 10v302q0 11 -9 14l-60 11l6 47h147v-374q0 -8 1.5 -10t8.5 -3l58 -6v-47zM278 -17h-85l358 741h84zM747 229q39 -22 59 -47t20 -63q0 -59 -45.5 -93t-115.5 -34q-68 0 -106 30.5t-38 84.5q0 68 75 123q-59 38 -59 102q0 54 39.5 86
t99.5 32q67 0 100.5 -29t33.5 -77q0 -60 -63 -115zM649 201q-57 -44 -57 -89q0 -29 19.5 -46.5t59.5 -17.5q36 0 54.5 17.5t18.5 46.5q0 20 -14 36.5t-28 25t-43 22.5q-7 3 -10 5zM692 257q48 45 48 84q0 53 -63 53q-27 0 -44 -15.5t-17 -39.5q0 -27 18.5 -44.5t57.5 -37.5z
" />
    <glyph glyph-name="threeeighths" unicode="&#x215c;" horiz-adv-x="890" 
d="M259 517v-3q87 -19 87 -108q0 -63 -44.5 -98t-116.5 -35q-99 0 -154 58l45 51q45 -45 105 -45q81 0 81 73q0 70 -83 70q-23 0 -46 -4v58l36 4q85 9 85 76q0 57 -66 57q-32 0 -46.5 -14t-14.5 -48l-75 8q0 62 40.5 88t100.5 26q143 0 143 -109q0 -40 -21 -67t-56 -38z
M318 -17h-85l358 741h84zM779 229q39 -22 59 -47t20 -63q0 -59 -45.5 -93t-115.5 -34q-68 0 -106 30.5t-38 84.5q0 68 75 123q-59 38 -59 102q0 54 39.5 86t99.5 32q67 0 100.5 -29t33.5 -77q0 -60 -63 -115zM681 201q-57 -44 -57 -89q0 -29 19.5 -46.5t59.5 -17.5
q36 0 54.5 17.5t18.5 46.5q0 20 -14 36.5t-28 25t-43 22.5q-7 3 -10 5zM724 257q48 45 48 84q0 53 -63 53q-27 0 -44 -15.5t-17 -39.5q0 -27 18.5 -44.5t57.5 -37.5z" />
    <glyph glyph-name="fiveeighths" unicode="&#x215d;" horiz-adv-x="890" 
d="M330 655h-179l-10 -124q40 27 89 27q57 0 90.5 -34.5t33.5 -99.5q0 -67 -41.5 -109t-121.5 -42q-101 0 -156 57l45 51q45 -43 105 -43q85 0 85 82q0 76 -68 76q-42 0 -74 -34l-57 23l15 235h244v-65zM318 -17h-85l358 741h84zM776 229q39 -22 59 -47t20 -63
q0 -59 -45.5 -93t-115.5 -34q-68 0 -106 30.5t-38 84.5q0 68 75 123q-59 38 -59 102q0 54 39.5 86t99.5 32q67 0 100.5 -29t33.5 -77q0 -60 -63 -115zM678 201q-57 -44 -57 -89q0 -29 19.5 -46.5t59.5 -17.5q36 0 54.5 17.5t18.5 46.5q0 20 -14 36.5t-28 25t-43 22.5
q-7 3 -10 5zM721 257q48 45 48 84q0 53 -63 53q-27 0 -44 -15.5t-17 -39.5q0 -27 18.5 -44.5t57.5 -37.5z" />
    <glyph glyph-name="seveneighths" unicode="&#x215e;" horiz-adv-x="890" 
d="M213 281h-85q11 120 55 222t90 152h-146q-8 0 -10 -8l-9 -53l-56 -4v130h311v-58q-59 -59 -100.5 -161.5t-49.5 -219.5zM273 -17h-85l358 741h84zM758 229q39 -22 59 -47t20 -63q0 -59 -45.5 -93t-115.5 -34q-68 0 -106 30.5t-38 84.5q0 68 75 123q-59 38 -59 102
q0 54 39.5 86t99.5 32q67 0 100.5 -29t33.5 -77q0 -60 -63 -115zM660 201q-57 -44 -57 -89q0 -29 19.5 -46.5t59.5 -17.5q36 0 54.5 17.5t18.5 46.5q0 20 -14 36.5t-28 25t-43 22.5q-7 3 -10 5zM703 257q48 45 48 84q0 53 -63 53q-27 0 -44 -15.5t-17 -39.5
q0 -27 18.5 -44.5t57.5 -37.5z" />
    <glyph glyph-name="partialdiff" unicode="&#x2202;" horiz-adv-x="553" 
d="M409 352q1 13 1 41q0 207 -133 207q-75 0 -150 -51l-38 59q94 65 197 65q212 0 212 -289q0 -54 -5.5 -103.5t-22.5 -104.5t-44 -95t-74 -66.5t-108 -26.5q-96 0 -147 52t-51 142q0 103 54 166.5t147 63.5q89 0 162 -60zM401 276q-67 65 -143 65q-63 0 -91 -43.5
t-28 -110.5q0 -57 27 -92.5t80 -35.5q130 0 155 217z" />
    <glyph glyph-name="Delta" unicode="&#x2206;" horiz-adv-x="670" 
d="M646 0h-622l250 724h114zM330 640l-191 -564h390z" />
    <glyph glyph-name="product" unicode="&#x220f;" horiz-adv-x="766" 
d="M730 -176h-254v54l63 7q10 1 13 5t3 15v747h-344v-746q0 -12 2.5 -15.5t13.5 -4.5l67 -8v-54h-254v54l63 7q10 1 13 5t3 15v738q0 12 -3 15.5t-13 4.5l-63 7v54h690v-54l-67 -8q-11 -1 -13.5 -4.5t-2.5 -14.5v-737q0 -12 2.5 -15.5t13.5 -4.5l67 -8v-54z" />
    <glyph glyph-name="summation" unicode="&#x2211;" horiz-adv-x="627" 
d="M576 -176h-553v57l235 400l-218 387v56h528v-165l-68 4l-14 77q-3 13 -17 13h-323l205 -371l-224 -383h350q14 0 16 11l16 87h67v-173z" />
    <glyph glyph-name="minus" unicode="&#x2212;" 
d="M474 281h-377v81h377v-81z" />
    <glyph glyph-name="uni2215" unicode="&#x2215;" horiz-adv-x="454" 
d="M113 -17h-83l313 648h82z" />
    <glyph glyph-name="uni2219" unicode="&#x2219;" horiz-adv-x="289" 
d="M215 307q0 -68 -71 -68q-72 0 -72 68q0 69 72 69q71 0 71 -69z" />
    <glyph glyph-name="radical" unicode="&#x221a;" 
d="M371 0h-95l-129 227q-7 12 -18 8l-62 -18l-25 56l135 65l134 -239l174 645l79 -19z" />
    <glyph glyph-name="infinity" unicode="&#x221e;" horiz-adv-x="645" 
d="M323 271q-23 -24 -39.5 -39t-49 -30.5t-65.5 -15.5q-56 0 -95 34t-39 99q0 61 40 99t102 38q32 0 62 -14t47 -28.5t42 -40.5q25 26 41 39.5t47 28.5t63 15q57 0 94 -34.5t37 -102.5q0 -58 -38.5 -96t-94.5 -38q-36 0 -68 15.5t-47.5 30t-38.5 40.5zM280 323
q-58 69 -104 69q-30 0 -48.5 -19.5t-18.5 -49.5q0 -31 15.5 -52t47.5 -21q12 0 23.5 4t19.5 8t20 14.5t16 15l16 17.5t13 14zM371 323q41 -46 62 -58q20 -11 42 -11q29 0 45.5 20t16.5 49q0 30 -14.5 49t-45.5 19q-7 0 -15 -2t-14 -4.5t-14.5 -8l-13 -8.5t-14 -11.5t-12 -11
l-12.5 -12z" />
    <glyph glyph-name="integral" unicode="&#x222b;" horiz-adv-x="392" 
d="M28 -169l20 70q38 -18 74 -18q63 0 57 70l-54 636q-5 72 35 105t99 33q51 0 103 -20l-20 -71q-35 18 -74 18q-64 0 -57 -70l54 -635q6 -73 -34 -105.5t-100 -32.5q-51 0 -103 20z" />
    <glyph glyph-name="approxequal" unicode="&#x2248;" 
d="M451 513l53 -16q-13 -53 -32.5 -80.5t-62.5 -27.5q-38 0 -118 22t-108 22q-21 0 -34.5 -11t-31.5 -40l-51 22q23 51 47.5 76t65.5 25q39 0 115 -22t107 -22q21 0 30.5 11.5t19.5 40.5zM451 333l52 -16q-12 -52 -32 -79.5t-63 -27.5q-38 0 -118 21.5t-108 21.5
q-21 0 -34.5 -11t-31.5 -40l-51 22q24 52 48 76.5t65 24.5q40 0 116 -22t106 -22q21 0 30.5 11.5t20.5 40.5z" />
    <glyph glyph-name="notequal" unicode="&#x2260;" 
d="M472 159h-201l-49 -109h-80l50 109h-94v83h132l36 79h-168v83h206l44 95h76l-43 -95h91v-83h-128l-36 -79h164v-83z" />
    <glyph glyph-name="lessequal" unicode="&#x2264;" 
d="M466 106l-377 145v100l367 150l23 -73l-309 -123l312 -120zM467 0h-377v80h377v-80z" />
    <glyph glyph-name="greaterequal" unicode="&#x2265;" 
d="M481 251l-377 -145l-16 78l312 120l-309 122l19 79l371 -154v-100zM480 0h-377v80h377v-80z" />
    <glyph glyph-name="triangle" unicode="&#x25b3;" horiz-adv-x="425" 
d="M335 320l-185 -117v231z" />
    <glyph glyph-name="lozenge" unicode="&#x25ca;" 
d="M322 -17h-74l-157 324l157 324h74l157 -324zM285 68l114 239l-114 236l-114 -236z" />
    <glyph glyph-name="circle" unicode="&#x25cb;" horiz-adv-x="610" 
d="M305 119q-85 0 -145 60t-60 145t60 145t145 60t145 -60t60 -145t-60 -145t-145 -60z" />
    <glyph glyph-name="st" unicode="&#xfb06;" horiz-adv-x="855" 
d="M807 83l21 -63q-72 -32 -145 -32t-103.5 37.5t-30.5 108.5v302q0 9 -8 9h-58v69h66v107q-23 10 -71 10q-45 0 -61 -27.5t-16 -82.5q0 -58 7 -154l-67 4l-11 62q-5 24 -90 24q-52 0 -78.5 -20.5t-26.5 -54.5q0 -32 30 -51t72.5 -29.5t84.5 -23.5t72 -45.5t30 -84.5
q0 -85 -56.5 -122.5t-145.5 -37.5q-57 0 -111.5 12t-71.5 22v127l67 -4l11 -63q1 -6 12 -12.5t37.5 -12t61.5 -5.5q109 0 109 81q0 35 -29.5 55t-71.5 29t-84.5 21t-72 44t-29.5 86q0 79 56.5 117.5t140.5 38.5q43 0 81 -8q-1 9 -1 28q0 74 33.5 113.5t120.5 39.5
q63 0 159 -16v-157q0 -10 8 -10h147v-69h-155v-294q0 -49 15.5 -68.5t58.5 -19.5q41 0 93 20z" />
    <glyph glyph-name="CR" horiz-adv-x="500" 
 />
    <glyph glyph-name="hyphen.case" horiz-adv-x="311" 
d="M291 307h-271v89h271v-89z" />
    <glyph glyph-name="ct" horiz-adv-x="902" 
d="M426 96l29 -66q-64 -42 -171 -42q-124 0 -184 69.5t-60 193.5q0 137 71 205t191 68q43 0 73 -8q-1 9 -1 28q0 74 33.5 113.5t120.5 39.5q63 0 159 -16v-157q0 -10 8 -10h147v-69h-155v-294q0 -49 15.5 -68.5t58.5 -19.5q41 0 93 20l21 -63q-72 -32 -145 -32t-103.5 37.5
t-30.5 108.5v302q0 9 -8 9h-58v69h66v107q-23 10 -71 10q-45 0 -61 -27.5t-16 -82.5q0 -67 7 -161l-68 3l-12 66q-1 11 -12 14q-25 9 -68 9q-72 0 -116 -47t-44 -148q0 -194 163 -194q74 0 128 33z" />
    <glyph glyph-name="ch" horiz-adv-x="1108" 
d="M676 754v-296q92 66 180 66q154 0 154 -182v-261q0 -12 2.5 -15.5t13.5 -4.5l57 -7v-54h-230v55l48 6q18 1 18 20v233q0 64 -17.5 98.5t-66.5 34.5q-76 0 -158 -65v-301q0 -12 2.5 -15.5t13.5 -4.5l56 -7v-54h-229v55l49 6q10 1 13 5t3 15v614q-31 7 -62 7
q-50 0 -67.5 -29t-17.5 -94q0 -45 17 -219l-68 3l-11 62q-2 13 -19 19q-24 8 -63 8q-70 0 -114 -47t-44 -145q0 -101 42 -149t116 -48q76 0 132 33l29 -66q-64 -42 -170 -42q-125 0 -185 71t-60 195q0 134 71 202t189 68q37 0 66 -7q-4 36 -4 75q0 38 6 66t22.5 54.5
t50 40.5t82.5 14q68 0 153 -13z" />
    <glyph glyph-name="ck" horiz-adv-x="1068" 
d="M1059 0h-237v54l63 8l-125 207l-84 -94v-94q0 -12 2.5 -15.5t13.5 -4.5l60 -7v-54h-245v55l62 6q10 1 13 4.5t3 15.5v614q-31 7 -62 7q-50 0 -67.5 -29t-17.5 -94q0 -45 17 -219l-68 3l-11 62q-2 13 -19 19q-24 8 -63 8q-70 0 -114 -47t-44 -145q0 -101 42 -149t116 -48
q76 0 132 33l29 -66q-64 -42 -170 -42q-125 0 -185 71t-60 195q0 134 71 202t189 68q37 0 66 -7q-4 36 -4 75q0 38 6 66t22.5 54.5t50 40.5t82.5 14q68 0 153 -13v-480l212 240h111v-54l-57 -12q-14 -2 -25 -15l-91 -102l152 -252q8 -12 29 -16l52 -9v-54z" />
    <glyph glyph-name="Th" horiz-adv-x="1131" 
d="M1107 0h-230v55l48 6q18 1 18 20v233q0 64 -17.5 98.5t-66.5 34.5q-76 0 -158 -65v-301q0 -12 2.5 -15.5t13.5 -4.5l56 -7v-54h-229v55l50 6q10 1 13 5t3 15v572h-239v-571q0 -11 2.5 -14.5t13.5 -4.5l110 -8v-55h-337v55l103 7q10 1 13 4.5t3 15.5v571h-155
q-14 0 -16 -11l-16 -87h-67v169h575q13 0 14 11l3 20h82v-297q92 66 181 66q154 0 154 -182v-261q0 -12 2.5 -15.5t13.5 -4.5l57 -7v-54z" />
    <glyph glyph-name="hyphensuperior" horiz-adv-x="221" 
d="M201 501h-181v72h181v-72z" />
    <glyph glyph-name="commasuperior" horiz-adv-x="127" 
d="M56 274l-39 11l19 69q1 6 -4 8l-25 9l15 63q27 -1 43.5 -3.5t28.5 -13t12 -29.5q0 -16 -12 -42z" />
    <glyph glyph-name="periodsuperior" horiz-adv-x="143" 
d="M123 389q0 -47 -51 -47q-52 0 -52 47q0 46 52 46q51 0 51 -46z" />
    <glyph glyph-name="a.sup" horiz-adv-x="375" 
d="M358 350h-104l-6 38l-3 1q-54 -47 -117 -47q-95 0 -95 91q0 51 29.5 73.5t93.5 27.5l84 7v33q0 34 -11.5 48.5t-47.5 14.5q-22 0 -33.5 -2t-20 -13t-8.5 -32l-71 7q0 92 135 92q74 0 103 -24.5t29 -90.5v-165q0 -8 2 -10t9 -3l32 -5v-41zM240 440v53l-64 -6
q-38 -4 -52 -14t-14 -34q0 -39 43 -39q47 0 87 40z" />
    <glyph glyph-name="b.sup" horiz-adv-x="408" 
d="M128 350h-72q9 58 9 93v324q0 10 -10 13l-38 12l7 41h115v-181q58 37 112 37q58 0 92 -39.5t34 -122.5q0 -95 -38 -140t-104 -45q-60 0 -101 39l-2 -1zM139 599v-163q39 -35 81 -35q79 0 79 121q0 108 -73 108q-40 0 -87 -31z" />
    <glyph glyph-name="c.sup" horiz-adv-x="340" 
d="M293 420l21 -49q-46 -29 -119 -29q-84 0 -125 46t-41 124q0 88 48 132.5t129 44.5q69 0 108 -23v-91l-54 3l-8 42q-2 7 -8 9q-16 6 -41 6q-43 0 -69 -28t-26 -88q0 -119 100 -119q47 0 85 20z" />
    <glyph glyph-name="d.sup" horiz-adv-x="409" 
d="M387 350h-105l-6 39l-3 1q-50 -48 -115 -48q-127 0 -127 169q0 90 38.5 134t101.5 44q57 0 99 -30v108q0 10 -9 13l-38 12l7 41h113v-424q0 -8 1.5 -10t9.5 -3l33 -5v-41zM268 445v154q-41 32 -79 32q-81 0 -81 -119q0 -111 75 -111q41 0 85 44z" />
    <glyph glyph-name="e.sup" horiz-adv-x="355" 
d="M300 425l20 -52q-60 -31 -126 -31q-165 0 -165 173q0 85 44 129.5t113 44.5q141 0 141 -155q0 -15 -2 -37h-217q3 -96 94 -96q38 0 98 24zM109 550h143q-1 84 -67 84q-69 0 -76 -84z" />
    <glyph glyph-name="f.sup" horiz-adv-x="289" 
d="M246 350h-217v42l40 4q11 1 11 13v215q0 7 -6 7h-46v52h52v41q0 116 130 116q50 0 78.5 -17.5t28.5 -64.5l-70 -9q0 24 -9.5 32t-31.5 8q-30 0 -40.5 -14.5t-10.5 -44.5v-41q0 -6 5 -6h109v-52h-114v-221q0 -12 12 -13l79 -6v-41z" />
    <glyph glyph-name="g.sup" horiz-adv-x="398" 
d="M182 205q-55 0 -116 24l16 53q45 -20 97 -20q56 0 74.5 23t18.5 81v33l-1 1q-50 -45 -110 -45q-131 0 -131 160q0 89 39.5 131.5t101.5 42.5q57 0 101 -35l8 29h69q-6 -53 -6 -96v-217q0 -96 -39.5 -130.5t-121.5 -34.5zM268 459v139q-43 33 -81 33q-79 0 -79 -113
q0 -104 74 -104q43 0 86 45z" />
    <glyph glyph-name="h.sup" horiz-adv-x="430" 
d="M411 350h-167v41l37 5q7 2 7 12v146q0 75 -53 75q-42 0 -88 -34v-186q0 -8 1.5 -10t9.5 -3l34 -5v-41h-163v42l32 4q11 1 11 13v358q0 10 -9 13l-38 12l7 41h115v-186q56 41 114 41q51 0 77 -31t26 -85v-163v-6.5t1 -3.5t3 -2.5t6 -0.5l37 -5v-41z" />
    <glyph glyph-name="i.sup" horiz-adv-x="213" 
d="M150 794q0 -23 -13 -35.5t-36 -12.5t-36.5 13t-13.5 35q0 47 50 47q49 0 49 -47zM198 350h-177v42l40 4q11 1 11 13v207q0 10 -9 13l-37 13l6 41h115v-274q0 -8 1.5 -10t9.5 -3l40 -5v-41z" />
    <glyph glyph-name="j.sup" horiz-adv-x="207" 
d="M70 325v291q0 11 -8 13l-41 13l6 41h119v-372q0 -105 -104 -105q-63 0 -100 30l26 44q25 -18 60 -18q24 0 33 14t9 49zM150 794q0 -22 -13.5 -35t-36.5 -13t-36 12.5t-13 35.5q0 47 49 47q50 0 50 -47z" />
    <glyph glyph-name="k.sup" horiz-adv-x="412" 
d="M401 350h-160v42l26 5l-71 122l-49 -51v-59q0 -8 1.5 -10t9.5 -3l37 -5v-41h-172v42l38 4q11 1 11 13v358q0 10 -9 13l-38 12l7 41h115v-293l135 143h80v-42l-36 -6q-9 -2 -17 -10l-56 -59l96 -159q5 -8 20 -11l32 -6v-40z" />
    <glyph glyph-name="l.sup" horiz-adv-x="213" 
d="M196 350h-173v42l38 4q11 1 11 13v358q0 10 -9 13l-38 12l7 41h115v-424q0 -8 1.5 -10t9.5 -3l38 -5v-41z" />
    <glyph glyph-name="m.sup" horiz-adv-x="614" 
d="M595 350h-165v41l33 5q10 1 10 12v154q0 67 -51 67q-30 0 -74 -28q0 -5 0.5 -16.5t0.5 -18.5v-157q0 -6 0.5 -8t2.5 -3.5t7 -2.5l32 -4v-41h-159v41l31 5q10 1 10 12v156q0 64 -44 64q-20 0 -44 -11t-38 -22v-186q0 -8 1.5 -10t9.5 -4l33 -4v-41h-162v42l32 4q11 1 11 13
v207q0 10 -9 13l-37 13l6 41h98l6 -36l3 -1q56 43 113 43q59 0 83 -39q59 39 115 39q53 0 75.5 -29.5t22.5 -87.5v-163q0 -8 1.5 -10t9.5 -3l36 -5v-41z" />
    <glyph glyph-name="n.sup" horiz-adv-x="430" 
d="M411 350h-168v41l35 4q10 1 10 13v146q0 75 -54 75q-40 0 -87 -34v-186q0 -8 1.5 -10t9.5 -4l34 -4v-41h-163v42l32 4q11 1 11 13v207q0 10 -9 13l-37 13l6 41h98l6 -36l3 -1q64 43 121 43q104 0 104 -117v-163v-6.5t1 -3.5t3 -2.5t6 -0.5l37 -5v-41z" />
    <glyph glyph-name="o.sup" horiz-adv-x="393" 
d="M195 342q-85 0 -125.5 47t-40.5 128q0 79 43.5 125.5t128.5 46.5q84 0 123.5 -45t39.5 -122q0 -85 -42 -132.5t-127 -47.5zM197 395q88 0 88 122q0 117 -85 117q-93 0 -93 -117q0 -122 90 -122z" />
    <glyph glyph-name="p.sup" horiz-adv-x="414" 
d="M221 213h-189v42l27 4q12 3 12 13v344q0 10 -10 13l-36 13l7 41h98l6 -36h2q63 42 118 42q127 0 127 -162q0 -46 -12 -85.5t-45 -69t-83 -29.5q-56 0 -98 35v-106q0 -8 2 -10t9 -2l65 -5v-42zM145 596v-162q38 -33 84 -33q76 0 76 121q0 107 -73 107q-38 0 -87 -33z" />
    <glyph glyph-name="q.sup" horiz-adv-x="400" 
d="M387 213h-178v42l53 5q13 0 13 12v115h-2q-50 -45 -111 -45q-131 0 -131 168q0 90 39.5 134.5t101.5 44.5q56 0 101 -35l8 29h69q-6 -70 -6 -96v-315q0 -8 1.5 -10t9.5 -3l32 -4v-42zM269 446v149q-38 36 -81 36q-79 0 -79 -119q0 -111 74 -111q43 0 86 45z" />
    <glyph glyph-name="r.sup" horiz-adv-x="309" 
d="M222 350h-193v42l32 4q11 1 11 13v207q0 10 -9 13l-37 13l6 41h99l8 -47l1 -1q44 54 99 54q34 0 52 -6v-105l-60 3l-7 40q-1 7 -8 7q-35 0 -69 -34v-185q0 -8 2 -10t9 -3l64 -4v-42z" />
    <glyph glyph-name="s.sup" horiz-adv-x="324" 
d="M286 585l-54 3l-7 35q-2 8 -8 11q-13 6 -47 6q-31 0 -48 -12t-17 -31q0 -11 5 -19t19.5 -14t22 -8l30.5 -8q27 -7 41.5 -11.5t34.5 -16t29 -29.5t9 -44q0 -54 -39.5 -79.5t-101.5 -25.5q-39 0 -76 8t-49 15v84l55 -3l6 -39q1 -8 10 -11q21 -7 60 -7q66 0 66 45
q0 31 -47 45l-40 9q-24 6 -38.5 11t-31.5 15.5t-25.5 28t-8.5 42.5q0 53 39.5 78.5t99.5 25.5q66 0 111 -18v-86z" />
    <glyph glyph-name="t.sup" horiz-adv-x="292" 
d="M255 411l15 -47q-52 -22 -98 -22q-52 0 -75.5 22.5t-23.5 70.5v189q0 7 -6 7h-48v45q43 5 59 21t22 66h48v-74q0 -6 5 -6h97v-52h-102v-176q0 -30 10.5 -42.5t37.5 -12.5q26 0 59 11z" />
    <glyph glyph-name="u.sup" horiz-adv-x="429" 
d="M403 350h-105l-6 39h-2q-59 -47 -125 -47q-52 0 -74.5 29t-22.5 87v161q0 8 -1.5 10t-8.5 4l-34 8l6 42h114v-210q0 -39 10 -55.5t37 -16.5q44 0 93 47v172q0 7 -1.5 9t-9.5 4l-31 8l6 42h111v-274q0 -12 9 -13l35 -4v-42z" />
    <glyph glyph-name="v.sup" horiz-adv-x="407" 
d="M249 350h-87l-111 274q-2 8 -13 11l-29 6l8 42h155v-42l-45 -5l82 -215h3l84 215l-45 5l7 42h140v-42l-22 -4q-14 -3 -17 -11z" />
    <glyph glyph-name="w.sup" horiz-adv-x="580" 
d="M443 350h-85l-60 246h-3l-64 -246h-90l-92 274q-2 8 -13 11l-29 6l8 42h143v-42l-40 -5l67 -212h2l70 250h82l64 -250h2l65 212l-42 5l7 42h135v-42l-24 -4q-12 -2 -16 -13z" />
    <glyph glyph-name="x.sup" horiz-adv-x="401" 
d="M389 350h-169v41l37 6l-66 82l-70 -83l40 -5v-41h-148v41l32 6q11 1 18 10l92 107l-91 109q-6 7 -16 11l-28 7l7 42h153v-42l-38 -5l64 -77l67 77l-40 5l7 42h134v-42l-30 -6q-8 -3 -17 -12l-86 -99l96 -115q8 -11 18 -12l34 -6v-41z" />
    <glyph glyph-name="y.sup" horiz-adv-x="408" 
d="M270 213h-197v43l50 5q9 1 15 14l35 76l-123 273q-4 8 -14 11l-27 6l8 42h151v-42l-44 -5l84 -200h2l84 200l-44 5l7 42h142v-42l-22 -3q-14 -3 -17 -11l-157 -366l67 -6v-42z" />
    <glyph glyph-name="z.sup" horiz-adv-x="343" 
d="M317 350h-286v42l192 241h-117q-7 0 -8 -8l-9 -40l-54 -2v100h276v-44l-190 -239h124q8 0 9 8l8 46l55 3v-107z" />
    <glyph glyph-name="hypheninferior" horiz-adv-x="221" 
d="M201 4h-181v72h181v-72z" />
    <glyph glyph-name="commainferior" horiz-adv-x="127" 
d="M56 -223l-39 11l19 69q1 6 -4 8l-25 9l15 63q27 -1 43.5 -3.5t28.5 -13t12 -29.5q0 -16 -12 -42z" />
    <glyph glyph-name="periodinferior" horiz-adv-x="143" 
d="M123 -108q0 -47 -51 -47q-52 0 -52 47q0 46 52 46q51 0 51 -46z" />
    <glyph glyph-name="minusinferior" horiz-adv-x="315" 
d="M285 42h-255v65h255v-65z" />
    <glyph glyph-name="plusinferior" horiz-adv-x="315" 
d="M192 -54h-69v96h-93v65h93v93h69v-93h93v-65h-93v-96z" />
    <glyph glyph-name="equalinferior" horiz-adv-x="314" 
d="M284 -39h-254v66h254v-66zM284 77h-254v66h254v-66z" />
    <glyph glyph-name="a.sinf" horiz-adv-x="375" 
d="M358 -147h-104l-6 38l-3 1q-54 -47 -117 -47q-95 0 -95 91q0 51 29.5 73.5t93.5 27.5l84 7v33q0 34 -11.5 48.5t-47.5 14.5q-22 0 -33.5 -2t-20 -13t-8.5 -32l-71 7q0 92 135 92q74 0 103 -24.5t29 -90.5v-165q0 -8 2 -10t9 -3l32 -5v-41zM240 -57v53l-64 -6
q-38 -4 -52 -14t-14 -34q0 -39 43 -39q47 0 87 40z" />
    <glyph glyph-name="b.sinf" horiz-adv-x="408" 
d="M128 -147h-72q9 58 9 93v324q0 10 -10 13l-38 12l7 41h115v-181q58 37 112 37q58 0 92 -39.5t34 -122.5q0 -95 -38 -140t-104 -45q-60 0 -101 39l-2 -1zM139 102v-163q39 -35 81 -35q79 0 79 121q0 108 -73 108q-40 0 -87 -31z" />
    <glyph glyph-name="c.sinf" horiz-adv-x="340" 
d="M293 -77l21 -49q-46 -29 -119 -29q-84 0 -125 46t-41 124q0 88 48 132.5t129 44.5q69 0 108 -23v-91l-54 3l-8 42q-2 7 -8 9q-16 6 -41 6q-43 0 -69 -28t-26 -88q0 -119 100 -119q47 0 85 20z" />
    <glyph glyph-name="d.sinf" horiz-adv-x="409" 
d="M387 -147h-105l-6 39l-3 1q-50 -48 -115 -48q-127 0 -127 169q0 90 38.5 134t101.5 44q57 0 99 -30v108q0 10 -9 13l-38 12l7 41h113v-424q0 -8 1.5 -10t9.5 -3l33 -5v-41zM268 -52v154q-41 32 -79 32q-81 0 -81 -119q0 -111 75 -111q41 0 85 44z" />
    <glyph glyph-name="e.sinf" horiz-adv-x="355" 
d="M300 -72l20 -52q-60 -31 -126 -31q-165 0 -165 173q0 85 44 129.5t113 44.5q141 0 141 -155q0 -15 -2 -37h-217q3 -96 94 -96q38 0 98 24zM109 53h143q-1 84 -67 84q-69 0 -76 -84z" />
    <glyph glyph-name="f.sinf" horiz-adv-x="289" 
d="M246 -147h-217v42l40 4q11 1 11 13v215q0 7 -6 7h-46v52h52v41q0 116 130 116q50 0 78.5 -17.5t28.5 -64.5l-70 -9q0 24 -9.5 32t-31.5 8q-30 0 -40.5 -14.5t-10.5 -44.5v-41q0 -6 5 -6h109v-52h-114v-221q0 -12 12 -13l79 -6v-41z" />
    <glyph glyph-name="g.sinf" horiz-adv-x="398" 
d="M182 -292q-55 0 -116 24l16 53q45 -20 97 -20q56 0 74.5 23t18.5 81v33l-1 1q-50 -45 -110 -45q-131 0 -131 160q0 89 39.5 131.5t101.5 42.5q57 0 101 -35l8 29h69q-6 -53 -6 -96v-217q0 -96 -39.5 -130.5t-121.5 -34.5zM268 -38v139q-43 33 -81 33q-79 0 -79 -113
q0 -104 74 -104q43 0 86 45z" />
    <glyph glyph-name="h.sinf" horiz-adv-x="430" 
d="M411 -147h-167v41l37 5q7 2 7 12v146q0 75 -53 75q-42 0 -88 -34v-186q0 -8 1.5 -10t9.5 -3l34 -5v-41h-163v42l32 4q11 1 11 13v358q0 10 -9 13l-38 12l7 41h115v-186q56 41 114 41q51 0 77 -31t26 -85v-163v-6.5t1 -3.5t3 -2.5t6 -0.5l37 -5v-41z" />
    <glyph glyph-name="i.sinf" horiz-adv-x="213" 
d="M150 297q0 -23 -13 -35.5t-36 -12.5t-36.5 13t-13.5 35q0 47 50 47q49 0 49 -47zM198 -147h-177v42l40 4q11 1 11 13v207q0 10 -9 13l-37 13l6 41h115v-274q0 -8 1.5 -10t9.5 -3l40 -5v-41z" />
    <glyph glyph-name="j.sinf" horiz-adv-x="207" 
d="M70 -172v291q0 11 -8 13l-41 13l6 41h119v-372q0 -105 -104 -105q-63 0 -100 30l26 44q25 -18 60 -18q24 0 33 14t9 49zM150 297q0 -22 -13.5 -35t-36.5 -13t-36 12.5t-13 35.5q0 47 49 47q50 0 50 -47z" />
    <glyph glyph-name="k.sinf" horiz-adv-x="412" 
d="M401 -147h-160v42l26 5l-71 122l-49 -51v-59q0 -8 1.5 -10t9.5 -3l37 -5v-41h-172v42l38 4q11 1 11 13v358q0 10 -9 13l-38 12l7 41h115v-293l135 143h80v-42l-36 -6q-9 -2 -17 -10l-56 -59l96 -159q5 -8 20 -11l32 -6v-40z" />
    <glyph glyph-name="l.sinf" horiz-adv-x="213" 
d="M196 -147h-173v42l38 4q11 1 11 13v358q0 10 -9 13l-38 12l7 41h115v-424q0 -8 1.5 -10t9.5 -3l38 -5v-41z" />
    <glyph glyph-name="m.sinf" horiz-adv-x="614" 
d="M595 -147h-165v41l33 5q10 1 10 12v154q0 67 -51 67q-30 0 -74 -28q0 -5 0.5 -16.5t0.5 -18.5v-157q0 -6 0.5 -8t2.5 -3.5t7 -2.5l32 -4v-41h-159v41l31 5q10 1 10 12v156q0 64 -44 64q-20 0 -44 -11t-38 -22v-186q0 -8 1.5 -10t9.5 -4l33 -4v-41h-162v42l32 4
q11 1 11 13v207q0 10 -9 13l-37 13l6 41h98l6 -36l3 -1q56 43 113 43q59 0 83 -39q59 39 115 39q53 0 75.5 -29.5t22.5 -87.5v-163q0 -8 1.5 -10t9.5 -3l36 -5v-41z" />
    <glyph glyph-name="n.sinf" horiz-adv-x="430" 
d="M411 -147h-168v41l35 4q10 1 10 13v146q0 75 -54 75q-40 0 -87 -34v-186q0 -8 1.5 -10t9.5 -4l34 -4v-41h-163v42l32 4q11 1 11 13v207q0 10 -9 13l-37 13l6 41h98l6 -36l3 -1q64 43 121 43q104 0 104 -117v-163v-6.5t1 -3.5t3 -2.5t6 -0.5l37 -5v-41z" />
    <glyph glyph-name="o.sinf" horiz-adv-x="393" 
d="M195 -155q-85 0 -125.5 47t-40.5 128q0 79 43.5 125.5t128.5 46.5q84 0 123.5 -45t39.5 -122q0 -85 -42 -132.5t-127 -47.5zM197 -102q88 0 88 122q0 117 -85 117q-93 0 -93 -117q0 -122 90 -122z" />
    <glyph glyph-name="p.sinf" horiz-adv-x="414" 
d="M221 -284h-189v42l27 4q12 3 12 13v344q0 10 -10 13l-36 13l7 41h98l6 -36h2q63 42 118 42q127 0 127 -162q0 -46 -12 -85.5t-45 -69t-83 -29.5q-56 0 -98 35v-106q0 -8 2 -10t9 -2l65 -5v-42zM145 99v-162q38 -33 84 -33q76 0 76 121q0 107 -73 107q-38 0 -87 -33z" />
    <glyph glyph-name="q.sinf" horiz-adv-x="400" 
d="M387 -284h-178v42l53 5q13 0 13 12v115h-2q-50 -45 -111 -45q-131 0 -131 168q0 90 39.5 134.5t101.5 44.5q56 0 101 -35l8 29h69q-6 -70 -6 -96v-315q0 -8 1.5 -10t9.5 -3l32 -4v-42zM269 -51v149q-38 36 -81 36q-79 0 -79 -119q0 -111 74 -111q43 0 86 45z" />
    <glyph glyph-name="r.sinf" horiz-adv-x="309" 
d="M222 -147h-193v42l32 4q11 1 11 13v207q0 10 -9 13l-37 13l6 41h99l8 -47l1 -1q44 54 99 54q34 0 52 -6v-105l-60 3l-7 40q-1 7 -8 7q-35 0 -69 -34v-185q0 -8 2 -10t9 -3l64 -4v-42z" />
    <glyph glyph-name="s.sinf" horiz-adv-x="324" 
d="M286 88l-54 3l-7 35q-2 8 -8 11q-13 6 -47 6q-31 0 -48 -12t-17 -31q0 -11 5 -19t19.5 -14t22 -8l30.5 -8q27 -7 41.5 -11.5t34.5 -16t29 -29.5t9 -44q0 -54 -39.5 -79.5t-101.5 -25.5q-39 0 -76 8t-49 15v84l55 -3l6 -39q1 -8 10 -11q21 -7 60 -7q66 0 66 45
q0 31 -47 45l-40 9q-24 6 -38.5 11t-31.5 15.5t-25.5 28t-8.5 42.5q0 53 39.5 78.5t99.5 25.5q66 0 111 -18v-86z" />
    <glyph glyph-name="t.sinf" horiz-adv-x="292" 
d="M255 -86l15 -47q-52 -22 -98 -22q-52 0 -75.5 22.5t-23.5 70.5v189q0 7 -6 7h-48v45q43 5 59 21t22 66h48v-74q0 -6 5 -6h97v-52h-102v-176q0 -30 10.5 -42.5t37.5 -12.5q26 0 59 11z" />
    <glyph glyph-name="u.sinf" horiz-adv-x="429" 
d="M403 -147h-105l-6 39h-2q-59 -47 -125 -47q-52 0 -74.5 29t-22.5 87v161q0 8 -1.5 10t-8.5 4l-34 8l6 42h114v-210q0 -39 10 -55.5t37 -16.5q44 0 93 47v172q0 7 -1.5 9t-9.5 4l-31 8l6 42h111v-274q0 -12 9 -13l35 -4v-42z" />
    <glyph glyph-name="v.sinf" horiz-adv-x="407" 
d="M249 -147h-87l-111 274q-2 8 -13 11l-29 6l8 42h155v-42l-45 -5l82 -215h3l84 215l-45 5l7 42h140v-42l-22 -4q-14 -3 -17 -11z" />
    <glyph glyph-name="w.sinf" horiz-adv-x="580" 
d="M443 -147h-85l-60 246h-3l-64 -246h-90l-92 274q-2 8 -13 11l-29 6l8 42h143v-42l-40 -5l67 -212h2l70 250h82l64 -250h2l65 212l-42 5l7 42h135v-42l-24 -4q-12 -2 -16 -13z" />
    <glyph glyph-name="x.sinf" horiz-adv-x="401" 
d="M389 -147h-169v41l37 6l-66 82l-70 -83l40 -5v-41h-148v41l32 6q11 1 18 10l92 107l-91 109q-6 7 -16 11l-28 7l7 42h153v-42l-38 -5l64 -77l67 77l-40 5l7 42h134v-42l-30 -6q-8 -3 -17 -12l-86 -99l96 -115q8 -11 18 -12l34 -6v-41z" />
    <glyph glyph-name="y.sinf" horiz-adv-x="408" 
d="M270 -284h-197v43l50 5q9 1 15 14l35 76l-123 273q-4 8 -14 11l-27 6l8 42h151v-42l-44 -5l84 -200h2l84 200l-44 5l7 42h142v-42l-22 -3q-14 -3 -17 -11l-157 -366l67 -6v-42z" />
    <glyph glyph-name="z.sinf" horiz-adv-x="343" 
d="M317 -147h-286v42l192 241h-117q-7 0 -8 -8l-9 -40l-54 -2v100h276v-44l-190 -239h124q8 0 9 8l8 46l55 3v-107z" />
    <glyph glyph-name="zero.num" horiz-adv-x="407" 
d="M201 273q-94 0 -129 57.5t-35 169.5q0 111 39 171t132 60t127.5 -57t34.5 -166q0 -116 -37.5 -175.5t-131.5 -59.5zM203 336q48 0 64.5 39.5t16.5 127.5q0 89 -15 127.5t-63 38.5q-49 0 -66 -40t-17 -128t15.5 -126.5t64.5 -38.5z" />
    <glyph glyph-name="one.num" horiz-adv-x="261" 
d="M246 281h-221v47l59 6q7 1 8.5 3t1.5 10v302q0 11 -9 14l-60 11l6 47h147v-374q0 -8 1.5 -10t8.5 -3l58 -6v-47z" />
    <glyph glyph-name="two.num" horiz-adv-x="359" 
d="M335 281h-308v50l128 151l44.5 56.5t22.5 38t10 41.5q0 53 -66 53q-32 0 -46.5 -14t-14.5 -49l-72 8q0 115 140 115q142 0 142 -107q0 -40 -19.5 -74.5t-58.5 -80.5l-112 -133h132q7 0 10 7l9 52h59v-114z" />
    <glyph glyph-name="three.num" horiz-adv-x="363" 
d="M243 517v-3q87 -19 87 -108q0 -63 -44.5 -98t-116.5 -35q-99 0 -154 58l45 51q45 -45 105 -45q81 0 81 73q0 70 -83 70q-23 0 -46 -4v58l36 4q85 9 85 76q0 57 -66 57q-32 0 -46.5 -14t-14.5 -48l-75 8q0 62 40.5 88t100.5 26q143 0 143 -109q0 -40 -21 -67t-56 -38z" />
    <glyph glyph-name="four.num" horiz-adv-x="388" 
d="M301 281h-77v84h-198v63l181 291h95v-290h56v-65h-57v-83zM224 429v200l-122 -200h122z" />
    <glyph glyph-name="five.num" horiz-adv-x="366" 
d="M308 655h-179l-10 -124q40 27 89 27q57 0 90.5 -34.5t33.5 -99.5q0 -67 -41.5 -109t-121.5 -42q-101 0 -156 57l45 51q45 -43 105 -43q85 0 85 82q0 76 -68 76q-42 0 -74 -34l-57 23l15 235h244v-65z" />
    <glyph glyph-name="six.num" horiz-adv-x="386" 
d="M344 628l-77 -9q0 30 -11.5 41.5t-37.5 11.5q-88 0 -92 -147q48 31 101 31q60 0 92 -34t32 -96q0 -71 -41 -112t-110 -41q-159 0 -159 224q0 33 4.5 63t16.5 62t31.5 55.5t52 38.5t74.5 15q124 0 124 -103zM126 465q1 -26 4 -44.5t10 -40.5t23.5 -34t40.5 -12
q31 0 47.5 23.5t16.5 59.5q0 40 -14.5 59t-47.5 19q-40 0 -80 -30z" />
    <glyph glyph-name="seven.num" horiz-adv-x="345" 
d="M187 281h-85q11 120 55 222t90 152h-146q-8 0 -10 -8l-9 -53l-56 -4v130h311v-58q-59 -59 -100.5 -161.5t-49.5 -219.5z" />
    <glyph glyph-name="eight.num" horiz-adv-x="361" 
d="M254 510q39 -22 59 -47t20 -63q0 -59 -45.5 -93t-115.5 -34q-68 0 -106 30.5t-38 84.5q0 68 75 123q-59 38 -59 102q0 54 39.5 86t99.5 32q67 0 100.5 -29t33.5 -77q0 -60 -63 -115zM156 482q-57 -44 -57 -89q0 -29 19.5 -46.5t59.5 -17.5q36 0 54.5 17.5t18.5 46.5
q0 20 -14 36.5t-28 25t-43 22.5q-7 3 -10 5zM199 538q48 45 48 84q0 53 -63 53q-27 0 -44 -15.5t-17 -39.5q0 -27 18.5 -44.5t57.5 -37.5z" />
    <glyph glyph-name="nine.num" horiz-adv-x="387" 
d="M43 318l36 52q42 -35 95 -35q50 0 68 37t20 96q-43 -31 -100 -31q-59 0 -92.5 37.5t-33.5 102.5q0 69 40.5 111.5t111.5 42.5q46 0 78.5 -17t49.5 -48.5t24 -69t7 -86.5q0 -237 -170 -237q-86 0 -134 45zM261 528q0 20 -1 31q-6 111 -74 111q-33 0 -50 -23t-17 -61
q0 -88 62 -88q48 0 80 30z" />
    <glyph glyph-name="parenleft.ordn" horiz-adv-x="240" 
d="M222 239l-63 -36q-105 140 -105 288t110 296l62 -37q-85 -128 -85 -258q0 -75 20 -130.5t61 -122.5z" />
    <glyph glyph-name="parenright.ordn" horiz-adv-x="239" 
d="M78 203l-63 36q83 126 83 257q0 71 -20.5 129.5t-62.5 124.5l63 37q107 -138 107 -292q0 -148 -107 -292z" />
    <glyph glyph-name="hyphen.ordn" horiz-adv-x="221" 
d="M201 432h-181v72h181v-72z" />
    <glyph glyph-name="comma.ordn" horiz-adv-x="127" 
d="M56 205l-39 11l19 69q1 6 -4 8l-25 9l15 63q27 -1 43.5 -3.5t28.5 -13t12 -29.5q0 -16 -12 -42z" />
    <glyph glyph-name="period.ordn" horiz-adv-x="143" 
d="M123 320q0 -47 -51 -47q-52 0 -52 47q0 46 52 46q51 0 51 -46z" />
    <glyph glyph-name="minus.ordn" horiz-adv-x="315" 
d="M285 470h-255v65h255v-65z" />
    <glyph glyph-name="plus.ordn" horiz-adv-x="315" 
d="M192 374h-69v96h-93v65h93v93h69v-93h93v-65h-93v-96z" />
    <glyph glyph-name="equal.ordn" horiz-adv-x="314" 
d="M284 389h-254v66h254v-66zM284 505h-254v66h254v-66z" />
    <glyph glyph-name="a.ordn" horiz-adv-x="375" 
d="M358 281h-104l-6 38l-3 1q-54 -47 -117 -47q-95 0 -95 91q0 51 29.5 73.5t93.5 27.5l84 7v33q0 34 -11.5 48.5t-47.5 14.5q-22 0 -33.5 -2t-20 -13t-8.5 -32l-71 7q0 92 135 92q74 0 103 -24.5t29 -90.5v-165q0 -8 2 -10t9 -3l32 -5v-41zM240 371v53l-64 -6
q-38 -4 -52 -14t-14 -34q0 -39 43 -39q47 0 87 40z" />
    <glyph glyph-name="b.ordn" horiz-adv-x="408" 
d="M128 281h-72q9 59 9 93v324q0 10 -10 13l-38 12l7 41h115v-181q58 37 112 37q58 0 92 -39.5t34 -122.5q0 -95 -38 -140t-104 -45q-60 0 -101 39l-2 -1zM139 530v-163q39 -35 81 -35q79 0 79 121q0 108 -73 108q-40 0 -87 -31z" />
    <glyph glyph-name="c.ordn" horiz-adv-x="340" 
d="M293 351l21 -49q-46 -29 -119 -29q-84 0 -125 46t-41 124q0 88 48 132.5t129 44.5q69 0 108 -23v-91l-54 3l-8 42q-2 7 -8 9q-16 6 -41 6q-43 0 -69 -28t-26 -88q0 -119 100 -119q47 0 85 20z" />
    <glyph glyph-name="d.ordn" horiz-adv-x="409" 
d="M387 281h-105l-6 39l-3 1q-50 -48 -115 -48q-127 0 -127 169q0 90 38.5 134t101.5 44q57 0 99 -30v108q0 10 -9 13l-38 12l7 41h113v-424q0 -8 1.5 -10t9.5 -3l33 -5v-41zM268 376v154q-41 32 -79 32q-81 0 -81 -119q0 -111 75 -111q41 0 85 44z" />
    <glyph glyph-name="e.ordn" horiz-adv-x="355" 
d="M300 356l20 -52q-60 -31 -126 -31q-165 0 -165 173q0 85 44 129.5t113 44.5q141 0 141 -155q0 -15 -2 -37h-217q3 -96 94 -96q38 0 98 24zM109 481h143q-1 84 -67 84q-69 0 -76 -84z" />
    <glyph glyph-name="f.ordn" horiz-adv-x="289" 
d="M246 281h-217v42l40 4q11 1 11 13v215q0 7 -6 7h-46v52h52v41q0 116 130 116q50 0 78.5 -17.5t28.5 -64.5l-70 -9q0 24 -9.5 32t-31.5 8q-30 0 -40.5 -14.5t-10.5 -44.5v-41q0 -6 5 -6h109v-52h-114v-221q0 -12 12 -13l79 -6v-41z" />
    <glyph glyph-name="g.ordn" horiz-adv-x="398" 
d="M182 136q-55 0 -116 24l16 53q45 -20 97 -20q56 0 74.5 23t18.5 81v33l-1 1q-50 -45 -110 -45q-131 0 -131 160q0 89 39.5 131.5t101.5 42.5q57 0 101 -35l8 29h69q-6 -52 -6 -96v-217q0 -96 -39.5 -130.5t-121.5 -34.5zM268 390v139q-43 33 -81 33q-79 0 -79 -113
q0 -104 74 -104q43 0 86 45z" />
    <glyph glyph-name="h.ordn" horiz-adv-x="430" 
d="M411 281h-167v41l37 5q7 2 7 12v146q0 75 -53 75q-42 0 -88 -34v-186q0 -8 1.5 -10t9.5 -3l34 -5v-41h-163v42l32 4q11 1 11 13v358q0 10 -9 13l-38 12l7 41h115v-186q56 41 114 41q51 0 77 -31t26 -85v-163v-6.5t1 -3.5t3 -2.5t6 -0.5l37 -5v-41z" />
    <glyph glyph-name="i.ordn" horiz-adv-x="213" 
d="M150 725q0 -23 -13 -35.5t-36 -12.5t-36.5 13t-13.5 35q0 47 50 47q49 0 49 -47zM198 281h-177v42l40 4q11 1 11 13v207q0 10 -9 13l-37 13l6 41h115v-274q0 -8 1.5 -10t9.5 -3l40 -5v-41z" />
    <glyph glyph-name="j.ordn" horiz-adv-x="207" 
d="M70 256v291q0 11 -8 13l-41 13l6 41h119v-372q0 -105 -104 -105q-63 0 -100 30l26 44q25 -18 60 -18q24 0 33 14t9 49zM150 725q0 -22 -13.5 -35t-36.5 -13t-36 12.5t-13 35.5q0 47 49 47q50 0 50 -47z" />
    <glyph glyph-name="k.ordn" horiz-adv-x="412" 
d="M401 281h-160v42l26 5l-71 122l-49 -51v-59q0 -8 1.5 -10t9.5 -3l37 -5v-41h-172v42l38 4q11 1 11 13v358q0 10 -9 13l-38 12l7 41h115v-293l135 143h80v-42l-36 -6q-9 -2 -17 -10l-56 -59l96 -159q5 -8 20 -11l32 -6v-40z" />
    <glyph glyph-name="l.ordn" horiz-adv-x="213" 
d="M196 281h-173v42l38 4q11 1 11 13v358q0 10 -9 13l-38 12l7 41h115v-424q0 -8 1.5 -10t9.5 -3l38 -5v-41z" />
    <glyph glyph-name="m.ordn" horiz-adv-x="614" 
d="M595 281h-165v41l33 5q10 1 10 12v154q0 67 -51 67q-30 0 -74 -28q0 -5 0.5 -16.5t0.5 -18.5v-157q0 -6 0.5 -8t2.5 -3.5t7 -2.5l32 -4v-41h-159v41l31 5q10 1 10 12v156q0 64 -44 64q-20 0 -44 -11t-38 -22v-186q0 -8 1.5 -10t9.5 -4l33 -4v-41h-162v42l32 4q11 1 11 13
v207q0 10 -9 13l-37 13l6 41h98l6 -36l3 -1q56 43 113 43q59 0 83 -39q59 39 115 39q53 0 75.5 -29.5t22.5 -87.5v-163q0 -8 1.5 -10t9.5 -3l36 -5v-41z" />
    <glyph glyph-name="n.ordn" horiz-adv-x="430" 
d="M411 281h-168v41l35 4q10 1 10 13v146q0 75 -54 75q-40 0 -87 -34v-186q0 -8 1.5 -10t9.5 -4l34 -4v-41h-163v42l32 4q11 1 11 13v207q0 10 -9 13l-37 13l6 41h98l6 -36l3 -1q64 43 121 43q104 0 104 -117v-163v-6.5t1 -3.5t3 -2.5t6 -0.5l37 -5v-41z" />
    <glyph glyph-name="o.ordn" horiz-adv-x="393" 
d="M195 273q-85 0 -125.5 47t-40.5 128q0 79 43.5 125.5t128.5 46.5q84 0 123.5 -45t39.5 -122q0 -85 -42 -132.5t-127 -47.5zM197 326q88 0 88 122q0 117 -85 117q-93 0 -93 -117q0 -122 90 -122z" />
    <glyph glyph-name="p.ordn" horiz-adv-x="414" 
d="M221 144h-189v42l27 4q12 3 12 13v344q0 10 -10 13l-36 13l7 41h98l6 -36h2q63 42 118 42q127 0 127 -162q0 -46 -12 -85.5t-45 -69t-83 -29.5q-56 0 -98 35v-106q0 -8 2 -10t9 -2l65 -5v-42zM145 527v-162q38 -33 84 -33q76 0 76 121q0 107 -73 107q-38 0 -87 -33z" />
    <glyph glyph-name="q.ordn" horiz-adv-x="400" 
d="M387 144h-178v42l53 5q13 0 13 12v115h-2q-50 -45 -111 -45q-131 0 -131 168q0 90 39.5 134.5t101.5 44.5q56 0 101 -35l8 29h69q-6 -70 -6 -96v-315q0 -8 1.5 -10t9.5 -3l32 -4v-42zM269 377v149q-38 36 -81 36q-79 0 -79 -119q0 -111 74 -111q43 0 86 45z" />
    <glyph glyph-name="r.ordn" horiz-adv-x="309" 
d="M222 281h-193v42l32 4q11 1 11 13v207q0 10 -9 13l-37 13l6 41h99l8 -47l1 -1q44 54 99 54q34 0 52 -6v-105l-60 3l-7 40q-1 7 -8 7q-35 0 -69 -34v-185q0 -8 2 -10t9 -3l64 -4v-42z" />
    <glyph glyph-name="s.ordn" horiz-adv-x="324" 
d="M286 516l-54 3l-7 35q-2 8 -8 11q-13 6 -47 6q-31 0 -48 -12t-17 -31q0 -11 5 -19t19.5 -14t22 -8l30.5 -8q27 -7 41.5 -11.5t34.5 -16t29 -29.5t9 -44q0 -54 -39.5 -79.5t-101.5 -25.5q-39 0 -76 8t-49 15v84l55 -3l6 -39q1 -8 10 -11q21 -7 60 -7q66 0 66 45
q0 31 -47 45l-40 9q-24 6 -38.5 11t-31.5 15.5t-25.5 28t-8.5 42.5q0 53 39.5 78.5t99.5 25.5q66 0 111 -18v-86z" />
    <glyph glyph-name="t.ordn" horiz-adv-x="292" 
d="M255 342l15 -47q-52 -22 -98 -22q-52 0 -75.5 22.5t-23.5 70.5v189q0 7 -6 7h-48v45q43 5 59 21t22 66h48v-74q0 -6 5 -6h97v-52h-102v-176q0 -30 10.5 -42.5t37.5 -12.5q26 0 59 11z" />
    <glyph glyph-name="u.ordn" horiz-adv-x="429" 
d="M403 281h-105l-6 39h-2q-59 -47 -125 -47q-52 0 -74.5 29t-22.5 87v161q0 8 -1.5 10t-8.5 4l-34 8l6 42h114v-210q0 -39 10 -55.5t37 -16.5q44 0 93 47v172q0 7 -1.5 9t-9.5 4l-31 8l6 42h111v-274q0 -12 9 -13l35 -4v-42z" />
    <glyph glyph-name="v.ordn" horiz-adv-x="407" 
d="M249 281h-87l-111 274q-2 8 -13 11l-29 6l8 42h155v-42l-45 -5l82 -215h3l84 215l-45 5l7 42h140v-42l-22 -4q-14 -3 -17 -11z" />
    <glyph glyph-name="w.ordn" horiz-adv-x="580" 
d="M443 281h-85l-60 246h-3l-64 -246h-90l-92 274q-2 8 -13 11l-29 6l8 42h143v-42l-40 -5l67 -212h2l70 250h82l64 -250h2l65 212l-42 5l7 42h135v-42l-24 -4q-12 -2 -16 -13z" />
    <glyph glyph-name="x.ordn" horiz-adv-x="401" 
d="M389 281h-169v41l37 6l-66 82l-70 -83l40 -5v-41h-148v41l32 6q11 1 18 10l92 107l-91 109q-6 7 -16 11l-28 7l7 42h153v-42l-38 -5l64 -77l67 77l-40 5l7 42h134v-42l-30 -6q-8 -3 -17 -12l-86 -99l96 -115q8 -11 18 -12l34 -6v-41z" />
    <glyph glyph-name="y.ordn" horiz-adv-x="408" 
d="M270 144h-197v43l50 5q9 1 15 14l35 76l-123 273q-4 8 -14 11l-27 6l8 42h151v-42l-44 -5l84 -200h2l84 200l-44 5l7 42h142v-42l-22 -3q-14 -3 -17 -11l-157 -366l67 -6v-42z" />
    <glyph glyph-name="z.ordn" horiz-adv-x="343" 
d="M317 281h-286v42l192 241h-117q-7 0 -8 -8l-9 -40l-54 -2v100h276v-44l-190 -239h124q8 0 9 8l8 46l55 3v-107z" />
    <glyph glyph-name="zero.denom" horiz-adv-x="407" 
d="M201 -8q-94 0 -129 57.5t-35 169.5q0 111 39 171t132 60t127.5 -57t34.5 -166q0 -116 -37.5 -175.5t-131.5 -59.5zM203 55q48 0 64.5 39.5t16.5 127.5q0 89 -15 127.5t-63 38.5q-49 0 -66 -40t-17 -128t15.5 -126.5t64.5 -38.5z" />
    <glyph glyph-name="one.denom" horiz-adv-x="261" 
d="M246 0h-221v47l59 6q7 1 8.5 3t1.5 10v302q0 11 -9 14l-60 11l6 47h147v-374q0 -8 1.5 -10t8.5 -3l58 -6v-47z" />
    <glyph glyph-name="two.denom" horiz-adv-x="359" 
d="M335 0h-308v50l128 151l44.5 56.5t22.5 38t10 41.5q0 53 -66 53q-32 0 -46.5 -14t-14.5 -49l-72 8q0 115 140 115q142 0 142 -107q0 -40 -19.5 -74.5t-58.5 -80.5l-112 -133h132q7 0 10 7l9 52h59v-114z" />
    <glyph glyph-name="three.denom" horiz-adv-x="363" 
d="M243 236v-3q87 -19 87 -108q0 -63 -44.5 -98t-116.5 -35q-99 0 -154 58l45 51q45 -45 105 -45q81 0 81 73q0 70 -83 70q-23 0 -46 -4v58l36 4q85 9 85 76q0 57 -66 57q-32 0 -46.5 -14t-14.5 -48l-75 8q0 62 40.5 88t100.5 26q143 0 143 -109q0 -40 -21 -67t-56 -38z" />
    <glyph glyph-name="four.denom" horiz-adv-x="388" 
d="M301 0h-77v84h-198v63l181 291h95v-290h56v-65h-57v-83zM224 148v200l-122 -200h122z" />
    <glyph glyph-name="five.denom" horiz-adv-x="366" 
d="M308 374h-179l-10 -124q40 27 89 27q57 0 90.5 -34.5t33.5 -99.5q0 -67 -41.5 -109t-121.5 -42q-101 0 -156 57l45 51q45 -43 105 -43q85 0 85 82q0 76 -68 76q-42 0 -74 -34l-57 23l15 235h244v-65z" />
    <glyph glyph-name="six.denom" horiz-adv-x="386" 
d="M344 347l-77 -9q0 30 -11.5 41.5t-37.5 11.5q-88 0 -92 -147q48 31 101 31q60 0 92 -34t32 -96q0 -71 -41 -112t-110 -41q-159 0 -159 224q0 33 4.5 63t16.5 62t31.5 55.5t52 38.5t74.5 15q124 0 124 -103zM126 184q1 -26 4 -44.5t10 -40.5t23.5 -34t40.5 -12
q31 0 47.5 23.5t16.5 59.5q0 40 -14.5 59t-47.5 19q-40 0 -80 -30z" />
    <glyph glyph-name="seven.denom" horiz-adv-x="345" 
d="M187 0h-85q11 120 55 222t90 152h-146q-8 0 -10 -8l-9 -53l-56 -4v130h311v-58q-59 -59 -100.5 -161.5t-49.5 -219.5z" />
    <glyph glyph-name="eight.denom" horiz-adv-x="361" 
d="M254 229q39 -22 59 -47t20 -63q0 -59 -45.5 -93t-115.5 -34q-68 0 -106 30.5t-38 84.5q0 68 75 123q-59 38 -59 102q0 54 39.5 86t99.5 32q67 0 100.5 -29t33.5 -77q0 -60 -63 -115zM156 201q-57 -44 -57 -89q0 -29 19.5 -46.5t59.5 -17.5q36 0 54.5 17.5t18.5 46.5
q0 20 -14 36.5t-28 25t-43 22.5q-7 3 -10 5zM199 257q48 45 48 84q0 53 -63 53q-27 0 -44 -15.5t-17 -39.5q0 -27 18.5 -44.5t57.5 -37.5z" />
    <glyph glyph-name="nine.denom" horiz-adv-x="387" 
d="M43 37l36 52q42 -35 95 -35q50 0 68 37t20 96q-43 -31 -100 -31q-59 0 -92.5 37.5t-33.5 102.5q0 69 40.5 111.5t111.5 42.5q46 0 78.5 -17t49.5 -48.5t24 -69t7 -86.5q0 -237 -170 -237q-86 0 -134 45zM261 247q0 20 -1 31q-6 111 -74 111q-33 0 -50 -23t-17 -61
q0 -88 62 -88q48 0 80 30z" />
    <glyph glyph-name="onefifth" horiz-adv-x="890" 
d="M273 281h-221v47l59 6q7 1 8.5 3t1.5 10v302q0 11 -9 14l-60 11l6 47h147v-374q0 -8 1.5 -10t8.5 -3l58 -6v-47zM279 -17h-85l358 741h84zM813 374h-179l-10 -124q40 27 89 27q57 0 90.5 -34.5t33.5 -99.5q0 -67 -41.5 -109t-121.5 -42q-101 0 -156 57l45 51
q45 -43 105 -43q85 0 85 82q0 76 -68 76q-42 0 -74 -34l-57 23l15 235h244v-65z" />
    <glyph glyph-name="twofifths" horiz-adv-x="890" 
d="M341 281h-308v50l128 151l44.5 56.5t22.5 38t10 41.5q0 53 -66 53q-32 0 -46.5 -14t-14.5 -49l-72 8q0 115 140 115q142 0 142 -107q0 -40 -19.5 -74.5t-58.5 -80.5l-112 -133h132q7 0 10 7l9 52h59v-114zM317 -17h-85l358 741h84zM832 374h-179l-10 -124q40 27 89 27
q57 0 90.5 -34.5t33.5 -99.5q0 -67 -41.5 -109t-121.5 -42q-101 0 -156 57l45 51q45 -43 105 -43q85 0 85 82q0 76 -68 76q-42 0 -74 -34l-57 23l15 235h244v-65z" />
    <glyph glyph-name="threefifths" horiz-adv-x="890" 
d="M259 517v-3q87 -19 87 -108q0 -63 -44.5 -98t-116.5 -35q-99 0 -154 58l45 51q45 -45 105 -45q81 0 81 73q0 70 -83 70q-23 0 -46 -4v58l36 4q85 9 85 76q0 57 -66 57q-32 0 -46.5 -14t-14.5 -48l-75 8q0 62 40.5 88t100.5 26q143 0 143 -109q0 -40 -21 -67t-56 -38z
M314 -17h-85l358 741h84zM834 374h-179l-10 -124q40 27 89 27q57 0 90.5 -34.5t33.5 -99.5q0 -67 -41.5 -109t-121.5 -42q-101 0 -156 57l45 51q45 -43 105 -43q85 0 85 82q0 76 -68 76q-42 0 -74 -34l-57 23l15 235h244v-65z" />
    <glyph glyph-name="fourfifths" horiz-adv-x="890" 
d="M300 281h-77v84h-198v63l181 291h95v-290h56v-65h-57v-83zM223 429v200l-122 -200h122zM319 -17h-85l358 741h84zM841 374h-179l-10 -124q40 27 89 27q57 0 90.5 -34.5t33.5 -99.5q0 -67 -41.5 -109t-121.5 -42q-101 0 -156 57l45 51q45 -43 105 -43q85 0 85 82
q0 76 -68 76q-42 0 -74 -34l-57 23l15 235h244v-65z" />
    <glyph glyph-name="onesixth" horiz-adv-x="890" 
d="M270 281h-221v47l59 6q7 1 8.5 3t1.5 10v302q0 11 -9 14l-60 11l6 47h147v-374q0 -8 1.5 -10t8.5 -3l58 -6v-47zM291 -17h-85l358 741h84zM833 347l-77 -9q0 30 -11.5 41.5t-37.5 11.5q-88 0 -92 -147q48 31 101 31q60 0 92 -34t32 -96q0 -71 -41 -112t-110 -41
q-159 0 -159 224q0 33 4.5 63t16.5 62t31.5 55.5t52 38.5t74.5 15q124 0 124 -103zM615 184q1 -26 4 -44.5t10 -40.5t23.5 -34t40.5 -12q31 0 47.5 23.5t16.5 59.5q0 40 -14.5 59t-47.5 19q-40 0 -80 -30z" />
    <glyph glyph-name="fivesixths" horiz-adv-x="890" 
d="M328 655h-179l-10 -124q40 27 89 27q57 0 90.5 -34.5t33.5 -99.5q0 -67 -41.5 -109t-121.5 -42q-101 0 -156 57l45 51q45 -43 105 -43q85 0 85 82q0 76 -68 76q-42 0 -74 -34l-57 23l15 235h244v-65zM321 -17h-85l358 741h84zM850 347l-77 -9q0 30 -11.5 41.5t-37.5 11.5
q-88 0 -92 -147q48 31 101 31q60 0 92 -34t32 -96q0 -71 -41 -112t-110 -41q-159 0 -159 224q0 33 4.5 63t16.5 62t31.5 55.5t52 38.5t74.5 15q124 0 124 -103zM632 184q1 -26 4 -44.5t10 -40.5t23.5 -34t40.5 -12q31 0 47.5 23.5t16.5 59.5q0 40 -14.5 59t-47.5 19
q-40 0 -80 -30z" />
    <glyph glyph-name="oneseventh" horiz-adv-x="890" 
d="M270 281h-221v47l59 6q7 1 8.5 3t1.5 10v302q0 11 -9 14l-60 11l6 47h147v-374q0 -8 1.5 -10t8.5 -3l58 -6v-47zM263 -17h-85l358 741h84zM691 0h-85q11 120 55 222t90 152h-146q-8 0 -10 -8l-9 -53l-56 -4v130h311v-58q-59 -59 -100.5 -161.5t-49.5 -219.5z" />
    <glyph glyph-name="twosevenths" horiz-adv-x="890" 
d="M329 281h-308v50l128 151l44.5 56.5t22.5 38t10 41.5q0 53 -66 53q-32 0 -46.5 -14t-14.5 -49l-72 8q0 115 140 115q142 0 142 -107q0 -40 -19.5 -74.5t-58.5 -80.5l-112 -133h132q7 0 10 7l9 52h59v-114zM302 -17h-85l358 741h84zM719 0h-85q11 120 55 222t90 152h-146
q-8 0 -10 -8l-9 -53l-56 -4v130h311v-58q-59 -59 -100.5 -161.5t-49.5 -219.5z" />
    <glyph glyph-name="threesevenths" horiz-adv-x="890" 
d="M259 517v-3q87 -19 87 -108q0 -63 -44.5 -98t-116.5 -35q-99 0 -154 58l45 51q45 -45 105 -45q81 0 81 73q0 70 -83 70q-23 0 -46 -4v58l36 4q85 9 85 76q0 57 -66 57q-32 0 -46.5 -14t-14.5 -48l-75 8q0 62 40.5 88t100.5 26q143 0 143 -109q0 -40 -21 -67t-56 -38z
M294 -17h-85l358 741h84zM709 0h-85q11 120 55 222t90 152h-146q-8 0 -10 -8l-9 -53l-56 -4v130h311v-58q-59 -59 -100.5 -161.5t-49.5 -219.5z" />
    <glyph glyph-name="foursevenths" horiz-adv-x="890" 
d="M293 281h-77v84h-198v63l181 291h95v-290h56v-65h-57v-83zM216 429v200l-122 -200h122zM295 -17h-85l358 741h84zM722 0h-85q11 120 55 222t90 152h-146q-8 0 -10 -8l-9 -53l-56 -4v130h311v-58q-59 -59 -100.5 -161.5t-49.5 -219.5z" />
    <glyph glyph-name="fivesevenths" horiz-adv-x="890" 
d="M320 655h-179l-10 -124q40 27 89 27q57 0 90.5 -34.5t33.5 -99.5q0 -67 -41.5 -109t-121.5 -42q-101 0 -156 57l45 51q45 -43 105 -43q85 0 85 82q0 76 -68 76q-42 0 -74 -34l-57 23l15 235h244v-65zM292 -17h-85l358 741h84zM714 0h-85q11 120 55 222t90 152h-146
q-8 0 -10 -8l-9 -53l-56 -4v130h311v-58q-59 -59 -100.5 -161.5t-49.5 -219.5z" />
    <glyph glyph-name="sixsevenths" horiz-adv-x="890" 
d="M335 628l-77 -9q0 30 -11.5 41.5t-37.5 11.5q-88 0 -92 -147q48 31 101 31q60 0 92 -34t32 -96q0 -71 -41 -112t-110 -41q-159 0 -159 224q0 33 4.5 63t16.5 62t31.5 55.5t52 38.5t74.5 15q124 0 124 -103zM117 465q1 -26 4 -44.5t10 -40.5t23.5 -34t40.5 -12
q31 0 47.5 23.5t16.5 59.5q0 40 -14.5 59t-47.5 19q-40 0 -80 -30zM289 -17h-85l358 741h84zM707 0h-85q11 120 55 222t90 152h-146q-8 0 -10 -8l-9 -53l-56 -4v130h311v-58q-59 -59 -100.5 -161.5t-49.5 -219.5z" />
    <glyph glyph-name="oneninth" horiz-adv-x="890" 
d="M276 281h-221v47l59 6q7 1 8.5 3t1.5 10v302q0 11 -9 14l-60 11l6 47h147v-374q0 -8 1.5 -10t8.5 -3l58 -6v-47zM278 -17h-85l358 741h84zM530 37l36 52q42 -35 95 -35q50 0 68 37t20 96q-43 -31 -100 -31q-59 0 -92.5 37.5t-33.5 102.5q0 69 40.5 111.5t111.5 42.5
q46 0 78.5 -17t49.5 -48.5t24 -69t7 -86.5q0 -237 -170 -237q-86 0 -134 45zM748 247q0 20 -1 31q-6 111 -74 111q-33 0 -50 -23t-17 -61q0 -88 62 -88q48 0 80 30z" />
    <glyph glyph-name="twoninths" horiz-adv-x="890" 
d="M345 281h-308v50l128 151l44.5 56.5t22.5 38t10 41.5q0 53 -66 53q-32 0 -46.5 -14t-14.5 -49l-72 8q0 115 140 115q142 0 142 -107q0 -40 -19.5 -74.5t-58.5 -80.5l-112 -133h132q7 0 10 7l9 52h59v-114zM320 -17h-85l358 741h84zM548 37l36 52q42 -35 95 -35
q50 0 68 37t20 96q-43 -31 -100 -31q-59 0 -92.5 37.5t-33.5 102.5q0 69 40.5 111.5t111.5 42.5q46 0 78.5 -17t49.5 -48.5t24 -69t7 -86.5q0 -237 -170 -237q-86 0 -134 45zM766 247q0 20 -1 31q-6 111 -74 111q-33 0 -50 -23t-17 -61q0 -88 62 -88q48 0 80 30z" />
    <glyph glyph-name="fourninths" horiz-adv-x="890" 
d="M304 281h-77v84h-198v63l181 291h95v-290h56v-65h-57v-83zM227 429v200l-122 -200h122zM318 -17h-85l358 741h84zM557 37l36 52q42 -35 95 -35q50 0 68 37t20 96q-43 -31 -100 -31q-59 0 -92.5 37.5t-33.5 102.5q0 69 40.5 111.5t111.5 42.5q46 0 78.5 -17t49.5 -48.5
t24 -69t7 -86.5q0 -237 -170 -237q-86 0 -134 45zM775 247q0 20 -1 31q-6 111 -74 111q-33 0 -50 -23t-17 -61q0 -88 62 -88q48 0 80 30z" />
    <glyph glyph-name="fiveninths" horiz-adv-x="890" 
d="M332 655h-179l-10 -124q40 27 89 27q57 0 90.5 -34.5t33.5 -99.5q0 -67 -41.5 -109t-121.5 -42q-101 0 -156 57l45 51q45 -43 105 -43q85 0 85 82q0 76 -68 76q-42 0 -74 -34l-57 23l15 235h244v-65zM307 -17h-85l358 741h84zM549 37l36 52q42 -35 95 -35q50 0 68 37
t20 96q-43 -31 -100 -31q-59 0 -92.5 37.5t-33.5 102.5q0 69 40.5 111.5t111.5 42.5q46 0 78.5 -17t49.5 -48.5t24 -69t7 -86.5q0 -237 -170 -237q-86 0 -134 45zM767 247q0 20 -1 31q-6 111 -74 111q-33 0 -50 -23t-17 -61q0 -88 62 -88q48 0 80 30z" />
    <glyph glyph-name="sevenninths" horiz-adv-x="890" 
d="M213 281h-85q11 120 55 222t90 152h-146q-8 0 -10 -8l-9 -53l-56 -4v130h311v-58q-59 -59 -100.5 -161.5t-49.5 -219.5zM261 -17h-85l358 741h84zM533 37l36 52q42 -35 95 -35q50 0 68 37t20 96q-43 -31 -100 -31q-59 0 -92.5 37.5t-33.5 102.5q0 69 40.5 111.5
t111.5 42.5q46 0 78.5 -17t49.5 -48.5t24 -69t7 -86.5q0 -237 -170 -237q-86 0 -134 45zM751 247q0 20 -1 31q-6 111 -74 111q-33 0 -50 -23t-17 -61q0 -88 62 -88q48 0 80 30z" />
    <glyph glyph-name="eightninths" horiz-adv-x="890" 
d="M272 510q39 -22 59 -47t20 -63q0 -59 -45.5 -93t-115.5 -34q-68 0 -106 30.5t-38 84.5q0 68 75 123q-59 38 -59 102q0 54 39.5 86t99.5 32q67 0 100.5 -29t33.5 -77q0 -60 -63 -115zM174 482q-57 -44 -57 -89q0 -29 19.5 -46.5t59.5 -17.5q36 0 54.5 17.5t18.5 46.5
q0 20 -14 36.5t-28 25t-43 22.5q-7 3 -10 5zM217 538q48 45 48 84q0 53 -63 53q-27 0 -44 -15.5t-17 -39.5q0 -27 18.5 -44.5t57.5 -37.5zM303 -17h-85l358 741h84zM540 37l36 52q42 -35 95 -35q50 0 68 37t20 96q-43 -31 -100 -31q-59 0 -92.5 37.5t-33.5 102.5
q0 69 40.5 111.5t111.5 42.5q46 0 78.5 -17t49.5 -48.5t24 -69t7 -86.5q0 -237 -170 -237q-86 0 -134 45zM758 247q0 20 -1 31q-6 111 -74 111q-33 0 -50 -23t-17 -61q0 -88 62 -88q48 0 80 30z" />
    <glyph glyph-name="commaaccent" horiz-adv-x="500" 
d="M249 -268l-46 16l22 87q3 8 -5 11l-34 14l22 80q54 -2 79.5 -14t25.5 -49q0 -24 -17 -56z" />
    <glyph glyph-name="revcommaaccent" horiz-adv-x="500" 
d="M313 645l-21 -79q-55 2 -80 14.5t-25 48.5q0 23 24 69l40 76l46 -16l-22 -83q-4 -13 6 -17z" />
    <glyph glyph-name="tilde.cap" horiz-adv-x="500" 
d="M425 867l-23 -35q-33 -50 -64 -50q-19 0 -43 7q-20 5 -65.5 17.5t-57.5 15.5q-10 1 -16 -5l-39 -38l-42 30l29 44q27 42 60 42q12 0 42 -7q115 -30 124 -32q9 -3 15 3l36 37z" />
    <glyph glyph-name="ring.cap" horiz-adv-x="500" 
d="M337 814q0 -39 -24 -62t-63 -23t-63 22.5t-24 60.5q0 41 25 64t62 23q38 0 62.5 -22.5t24.5 -62.5zM250 776q36 0 36 38t-36 38q-37 0 -37 -39q0 -37 37 -37z" />
    <glyph glyph-name="circumflex.cap" horiz-adv-x="500" 
d="M369 766l-119 83l-119 -83l-40 41l117 102h84l117 -102z" />
    <glyph glyph-name="acute.cap" horiz-adv-x="500" 
d="M367 867l-204 -101l-29 46l188 129z" />
    <glyph glyph-name="grave.cap" horiz-adv-x="500" 
d="M339 765l-204 102l46 73l188 -128z" />
    <glyph glyph-name="dieresis.cap" horiz-adv-x="500" 
d="M204 837q0 -25 -15 -40t-41 -15q-25 0 -40.5 15t-15.5 40t15.5 39.5t40.5 14.5q26 0 41 -14.5t15 -39.5zM406 837q0 -25 -15 -40t-41 -15t-41 15t-15 40t15 39.5t41 14.5t41 -14.5t15 -39.5z" />
    <glyph glyph-name="caron.cap" horiz-adv-x="500" 
d="M410 879l-118 -102h-84l-117 102l40 41l119 -83l119 83z" />
    <glyph glyph-name="macron.cap" horiz-adv-x="500" 
d="M403 794h-307v69h307v-69z" />
    <glyph glyph-name="dotaccent.cap" horiz-adv-x="500" 
d="M315 845q0 -30 -17 -46.5t-48 -16.5t-47.5 16.5t-16.5 46.5q0 63 64 63q65 0 65 -63z" />
    <glyph glyph-name="cedilla.cap" horiz-adv-x="500" 
d="M156 -232l7 52q13 -3 30 -3q73 0 73 54q0 44 -70 45l16 114l57 -8l-9 -66q32 -7 53 -27.5t21 -54.5q0 -45 -33 -77.5t-101 -32.5q-28 0 -44 4z" />
    <glyph glyph-name="hungarumlaut.cap" horiz-adv-x="500" 
d="M285 910l-171 -145l-41 37l150 167zM462 897l-181 -133l-37 38l160 157z" />
    <glyph glyph-name="commaaccent.cap" horiz-adv-x="500" 
d="M249 -268l-46 16l22 87q3 8 -5 11l-34 14l22 80q54 -2 79.5 -14t25.5 -49q0 -24 -17 -56z" />
    <glyph glyph-name="breve.cap" horiz-adv-x="500" 
d="M350 920l55 -21q-31 -117 -159 -117q-120 0 -151 117l60 22q27 -74 95 -74q35 0 60 15t40 58z" />
    <glyph glyph-name="caron.alt" horiz-adv-x="500" 
d="M248 552l-46 14q19 63 19 103q0 36 -14 64l69 30q24 -27 24 -55q0 -21 -8 -46q-14 -48 -44 -110z" />
    <glyph glyph-name="ogonek.cap" horiz-adv-x="500" 
d="M317 -140l21 -56q-47 -22 -93 -22q-43 0 -67 20t-24 59q0 74 114 159l58 -16q-89 -73 -89 -124q0 -32 31 -32q20 0 49 12z" />
    <glyph glyph-name="square" horiz-adv-x="610" 
d="M479 151h-349v349h349v-349z" />
    <glyph glyph-name="square.open" horiz-adv-x="610" 
d="M434 196v259h-259v-259h259zM479 151h-349v349h349v-349z" />
    <glyph glyph-name="circle.open" horiz-adv-x="610" 
d="M305 119q-85 0 -145 60t-60 145t60 145t145 60t145 -60t60 -145t-60 -145t-145 -60zM305 167q63 0 107 47.5t44 112.5q0 64 -43.5 108.5t-107.5 44.5t-107 -45.5t-43 -110.5t43 -111t107 -46z" />
    <glyph glyph-name="triangle.left" horiz-adv-x="425" 
d="M275 203l-185 117l185 114v-231z" />
    <glyph glyph-name="raute" horiz-adv-x="610" 
d="M514 325l-210 -209l-209 210l210 209z" />
    <glyph glyph-name="arrow.right" 
d="M50 236v78h357l-61 122h82l92 -162l-91 -160h-83l62 122h-358z" />
    <glyph glyph-name="arrow.left" 
d="M520 314v-78h-358l62 -122h-83l-91 160l92 162h82l-61 -122h357z" />
    <glyph glyph-name="arrow.up" 
d="M324 40h-78v356l-123 -61v83l163 91l160 -91v-83l-122 62v-357z" />
    <glyph glyph-name="arrow.down" 
d="M246 510h78v-357l122 62v-83l-160 -91l-163 91v83l123 -61v356z" />
    <glyph glyph-name="arrow.leftup" 
d="M80 262l50 179l178 50l59 -60l-130 -42l253 -253l-56 -54l-252 252l-44 -131z" />
    <glyph glyph-name="arrow.rightup" 
d="M439 441l51 -179l-59 -59l-44 131l-252 -252l-55 54l253 253l-131 42l60 60z" />
    <glyph glyph-name="zero.lf" horiz-adv-x="562" 
d="M276 -12q-58 0 -99.5 17.5t-67 46.5t-40 76t-19.5 96t-5 116q0 64 6 115t22.5 97.5t43.5 77.5t70 49.5t101 18.5q57 0 99 -18.5t66.5 -48t39 -76.5t19.5 -93.5t5 -108.5q0 -68 -6 -120t-22 -99.5t-43 -78.5t-69.5 -49t-100.5 -18zM280 61q36 0 62 14t41.5 37t24 61
t11.5 77.5t3 95.5q0 46 -1.5 78.5t-6.5 66.5t-14 56t-24 40t-37.5 26.5t-52.5 8.5q-36 0 -62.5 -13.5t-42.5 -36t-25.5 -60t-12.5 -78t-3 -96.5q0 -68 4.5 -112t18.5 -85t43 -60.5t74 -19.5z" />
    <glyph glyph-name="one.lf" horiz-adv-x="368" 
d="M343 0h-308v55l93 6q10 1 13 5t3 15v506q0 17 -14 21l-94 18l6 56h193v-601q0 -12 2.5 -15.5t13.5 -4.5l92 -7v-54z" />
    <glyph glyph-name="two.lf" horiz-adv-x="495" 
d="M470 0h-441v59l197 238q65 79 94 127.5t29 99.5t-28 76.5t-91 25.5q-61 0 -86.5 -21t-25.5 -83l-85 9q0 52 17.5 86.5t48.5 51t63 23t73 6.5q206 0 206 -168q0 -64 -33.5 -125t-91.5 -129l-176 -208h234q13 0 15 11l15 85h66v-164z" />
    <glyph glyph-name="three.lf" horiz-adv-x="505" 
d="M328 369v-4q130 -32 130 -171q0 -92 -60 -149t-164 -57q-142 0 -221 88l55 61q69 -72 166 -72q55 0 93 31.5t38 95.5q0 132 -138 132q-32 0 -73 -7v72l62 6q135 13 135 126q0 105 -108 105q-62 0 -89 -21t-27 -83l-85 9q0 51 17.5 86t49 51.5t63.5 23t73 6.5
q102 0 150 -45t48 -124q0 -58 -30.5 -99.5t-84.5 -60.5z" />
    <glyph glyph-name="four.lf" horiz-adv-x="542" 
d="M505 0h-281v54l94 7q10 1 13 4.5t3 15.5v106h-307v56l284 439h111v-426h87v-72h-88v-105q0 -10 2.5 -13t13.5 -5l68 -7v-54zM335 256v331l-218 -331h218z" />
    <glyph glyph-name="five.lf" horiz-adv-x="516" 
d="M435 603h-275l-15 -222q54 45 129 45q91 0 142 -54t51 -154q0 -101 -60 -165.5t-167 -64.5q-147 0 -227 85l55 61q66 -69 169 -69q56 0 96.5 36.5t40.5 109.5q0 75 -33 107.5t-85 32.5q-67 0 -127 -56l-66 29l21 358h351v-79z" />
    <glyph glyph-name="six.lf" horiz-adv-x="547" 
d="M489 549l-86 -10q0 48 -22 67.5t-69 19.5t-80 -23.5t-49.5 -64t-23.5 -83.5t-7 -94q77 64 166 64t137 -57.5t48 -150.5q0 -103 -58.5 -166t-157.5 -63q-67 0 -113.5 28t-70.5 79t-34 109t-10 132q0 50 6.5 96t24 96t45.5 86.5t75.5 60t108.5 23.5q32 0 60 -6.5t54 -22
t41 -46t15 -74.5zM153 286q1 -35 6.5 -68t18.5 -72t42 -63t70 -24q60 0 90 40.5t30 109.5q0 72 -25 108t-83 36q-39 0 -82.5 -22.5t-66.5 -44.5z" />
    <glyph glyph-name="seven.lf" horiz-adv-x="488" 
d="M245 0h-96q16 186 84.5 351t142.5 252h-243q-14 0 -15 -11l-18 -88l-63 -5v183h443v-69q-87 -88 -156 -267.5t-79 -345.5z" />
    <glyph glyph-name="eight.lf" horiz-adv-x="521" 
d="M353 355q60 -34 94 -73.5t34 -100.5q0 -89 -60.5 -141t-163.5 -52q-99 0 -155.5 45t-56.5 129q0 61 32 107t91 93q-97 63 -97 161q0 80 55.5 127.5t141.5 47.5q96 0 144.5 -42.5t48.5 -113.5q0 -51 -32 -100.5t-76 -86.5zM232 327q-102 -78 -102 -155q0 -54 34.5 -84.5
t99.5 -30.5q58 0 92 33t34 84q0 15 -4 29t-9 24t-17.5 21.5t-19 18t-25 17l-25.5 14.5t-29.5 15zM289 389q87 78 87 145q0 95 -110 95q-48 0 -77.5 -27.5t-29.5 -72.5q0 -48 33 -77.5t97 -62.5z" />
    <glyph glyph-name="nine.lf" horiz-adv-x="552" 
d="M66 52l45 65q61 -54 143 -54q146 0 151 245q-72 -66 -164 -66q-95 0 -142.5 59.5t-47.5 159.5q0 108 58.5 172.5t162.5 64.5q67 0 113 -27t69.5 -78.5t33 -109t9.5 -134.5q0 -361 -242 -361q-121 0 -189 64zM403 387q-1 37 -3.5 64t-11 62.5t-22 58.5t-39 39t-60.5 16
q-59 0 -90.5 -42t-31.5 -112q0 -159 108 -159q43 0 84 23t66 50z" />
    <glyph glyph-name="dollar.lf" horiz-adv-x="516" 
d="M301 -80h-71v80q-108 1 -191 37v140h66l18 -74q3 -14 16 -20q31 -16 91 -17v242q-32 12 -51 20t-45.5 24t-41 34t-25 46t-10.5 63q0 78 47.5 125t125.5 58v75h71v-72q69 -3 156 -32v-152l-67 5l-17 75q-3 14 -5.5 17.5t-13.5 7.5q-26 8 -53 11v-242q37 -14 60.5 -26.5
t50.5 -33.5t40 -52t13 -72q0 -73 -43.5 -120.5t-120.5 -61.5v-85zM143 508q0 -40 22.5 -65t64.5 -44v211q-41 -9 -64 -35.5t-23 -66.5zM379 174q0 69 -78 105v-206q78 21 78 101z" />
    <glyph glyph-name="Euro.lf" horiz-adv-x="556" 
d="M23 373l12 61h47q19 131 89 197.5t173 66.5q94 0 157 -34v-145l-64 4l-13 74q-2 14 -13 17q-23 10 -71 10q-65 0 -108.5 -46.5t-56.5 -143.5h205l-12 -61h-198v-23q0 -29 1 -42h188l-12 -61h-171q27 -186 163 -186q46 0 71 10q11 5 13 18l13 73l64 4v-145
q-23 -11 -70 -22t-96 -11q-221 0 -253 259h-79l12 61h62v65h-53z" />
    <glyph glyph-name="cent.lf" horiz-adv-x="533" 
d="M321 172q33 3 53 9q9 3 11 14l12 65l63 3v-133q-54 -27 -139 -31v-99h-71v102q-194 24 -194 245q0 109 52 171.5t142 76.5v103h71v-100q77 -2 137 -30v-131l-64 3l-11 65q-1 11 -12 14q-22 7 -50 8v-355zM250 521q-98 -29 -98 -168q0 -147 98 -175v343z" />
    <glyph glyph-name="sterling.lf" horiz-adv-x="554" 
d="M507 0h-459l-13 59q52 40 64 80t12 132v49h-80v72h80v89q0 217 223 217q79 0 126 -31.5t47 -115.5l-84 -12q0 51 -23.5 69.5t-68.5 18.5q-70 0 -99 -35.5t-29 -125.5v-74h189v-72h-189v-54q0 -73 -12 -115.5t-52 -82.5h271q13 0 15 11l16 85h66v-164z" />
    <glyph glyph-name="yen.lf" horiz-adv-x="590" 
d="M506 598l-126 -206h99v-62h-133v-72h133v-62h-133v-114q0 -12 2.5 -15.5t13.5 -4.5l99 -8v-54h-318v54l94 7q11 1 14 4.5t3 16.5v114h-132v62h132v72h-132v62h95l-130 207q-9 14 -25 18l-45 11l10 54h221v-54l-71 -9l127 -216l129 216l-70 9l10 54h200v-54l-41 -10
q-16 -4 -26 -20z" />
    <glyph glyph-name="florin.lf" horiz-adv-x="542" 
d="M421 352h-149l-48 -274q-16 -92 -54 -130.5t-118 -38.5q-36 0 -73.5 11.5t-57.5 26.5l28 62q49 -31 104 -31q34 0 53 19t28 68l50 277q2 10 -7 10h-93l12 67h101l20 109q16 88 56 129t122 41q72 0 133 -33l-22 -128l-60 4l-1 68q0 10 -9 13q-22 8 -43 8
q-42 0 -61.5 -25.5t-28.5 -76.5l-18 -99q-1 -10 7 -10h141z" />
    <glyph glyph-name="zero.slash" 
d="M279 -12q-58 0 -99.5 17.5t-67 46.5t-40 76t-19.5 96t-5 116q0 64 6 115t22.5 97.5t43.5 77.5t70 49.5t101 18.5q57 0 99 -18.5t66.5 -48t39 -76.5t19.5 -93.5t5 -108.5q0 -68 -6 -120t-22 -99.5t-43 -78.5t-69.5 -49t-100.5 -18zM143 338q0 -179 43 -235l137 516
q-15 3 -34 3q-36 0 -62.5 -13.5t-42.5 -36t-25.5 -60t-12.5 -78t-3 -96.5zM283 61q36 0 62 14t41.5 37t24 61t11.5 77.5t3 95.5q0 90 -8 146t-32 88l-138 -516q17 -3 36 -3z" />
    <glyph glyph-name="zero.tf" 
d="M280 -12q-58 0 -99.5 17.5t-67 46.5t-40 76t-19.5 96t-5 116q0 64 6 115t22.5 97.5t43.5 77.5t70 49.5t101 18.5q57 0 99 -18.5t66.5 -48t39 -76.5t19.5 -93.5t5 -108.5q0 -68 -6 -120t-22 -99.5t-43 -78.5t-69.5 -49t-100.5 -18zM284 61q36 0 62 14t41.5 37t24 61
t11.5 77.5t3 95.5q0 46 -1.5 78.5t-6.5 66.5t-14 56t-24 40t-37.5 26.5t-52.5 8.5q-36 0 -62.5 -13.5t-42.5 -36t-25.5 -60t-12.5 -78t-3 -96.5q0 -68 4.5 -112t18.5 -85t43 -60.5t74 -19.5z" />
    <glyph glyph-name="one.tf" 
d="M449 0h-346v54l121 8q10 1 13 5t3 15v505q0 17 -14 21l-94 18l6 56h193v-601q0 -12 2.5 -15.5t13.5 -4.5l102 -7v-54z" />
    <glyph glyph-name="two.tf" 
d="M507 0h-441v59l197 238q65 79 94 127.5t29 99.5t-28 76.5t-91 25.5q-61 0 -86.5 -21t-25.5 -83l-85 9q0 52 17.5 86.5t48.5 51t63 23t73 6.5q206 0 206 -168q0 -64 -33.5 -125t-91.5 -129l-176 -208h234q13 0 15 11l15 85h66v-164z" />
    <glyph glyph-name="three.tf" 
d="M363 369v-4q130 -32 130 -171q0 -92 -60 -149t-164 -57q-142 0 -221 88l55 61q69 -72 166 -72q55 0 93 31.5t38 95.5q0 132 -138 132q-32 0 -73 -7v72l62 6q135 13 135 126q0 105 -108 105q-62 0 -89 -21t-27 -83l-85 9q0 51 17.5 86t49 51.5t63.5 23t73 6.5
q102 0 150 -45t48 -124q0 -58 -30.5 -99.5t-84.5 -60.5z" />
    <glyph glyph-name="four.tf" 
d="M515 0h-281v54l94 7q10 1 13 4.5t3 15.5v106h-307v56l284 439h111v-426h87v-72h-88v-105q0 -10 2.5 -13t13.5 -5l68 -7v-54zM345 256v331l-218 -331h218z" />
    <glyph glyph-name="five.tf" 
d="M463 603h-275l-15 -222q54 45 129 45q91 0 142 -54t51 -154q0 -101 -60 -165.5t-167 -64.5q-147 0 -227 85l55 61q66 -69 169 -69q56 0 96.5 36.5t40.5 109.5q0 75 -33 107.5t-85 32.5q-67 0 -127 -56l-66 29l21 358h351v-79z" />
    <glyph glyph-name="six.tf" 
d="M495 549l-86 -10q0 48 -22 67.5t-69 19.5t-80 -23.5t-49.5 -64t-23.5 -83.5t-7 -94q77 64 166 64t137 -57.5t48 -150.5q0 -103 -58.5 -166t-157.5 -63q-67 0 -113.5 28t-70.5 79t-34 109t-10 132q0 50 6.5 96t24 96t45.5 86.5t75.5 60t108.5 23.5q32 0 60 -6.5t54 -22
t41 -46t15 -74.5zM159 286q1 -35 6.5 -68t18.5 -72t42 -63t70 -24q60 0 90 40.5t30 109.5q0 72 -25 108t-83 36q-39 0 -82.5 -22.5t-66.5 -44.5z" />
    <glyph glyph-name="seven.tf" 
d="M294 0h-96q16 187 84.5 356t141.5 255h-259q-13 0 -15 -11l-17 -88l-63 -5v175h459v-61q-86 -87 -158 -278t-77 -343z" />
    <glyph glyph-name="eight.tf" 
d="M374 355q60 -34 94 -73.5t34 -100.5q0 -89 -60.5 -141t-163.5 -52q-99 0 -155.5 45t-56.5 129q0 61 32 107t91 93q-97 63 -97 161q0 80 55.5 127.5t141.5 47.5q96 0 144.5 -42.5t48.5 -113.5q0 -51 -32 -100.5t-76 -86.5zM253 327q-102 -78 -102 -155q0 -54 34.5 -84.5
t99.5 -30.5q58 0 92 33t34 84q0 15 -4 29t-9 24t-17.5 21.5t-19 18t-25 17l-25.5 14.5t-29.5 15zM310 389q87 78 87 145q0 95 -110 95q-48 0 -77.5 -27.5t-29.5 -72.5q0 -48 33 -77.5t97 -62.5z" />
    <glyph glyph-name="nine.tf" 
d="M75 52l45 65q61 -54 143 -54q146 0 151 245q-72 -66 -164 -66q-95 0 -142.5 59.5t-47.5 159.5q0 108 58.5 172.5t162.5 64.5q67 0 113 -27t69.5 -78.5t33 -109t9.5 -134.5q0 -361 -242 -361q-121 0 -189 64zM412 387q-1 37 -3.5 64t-11 62.5t-22 58.5t-39 39t-60.5 16
q-59 0 -90.5 -42t-31.5 -112q0 -159 108 -159q43 0 84 23t66 50z" />
    <glyph glyph-name="dollar.tf" 
d="M314 -80h-71v80q-108 1 -191 37v140h66l18 -74q3 -14 16 -20q31 -16 91 -17v242q-32 12 -51 20t-45.5 24t-41 34t-25 46t-10.5 63q0 78 47.5 125t125.5 58v75h71v-72q69 -3 156 -32v-152l-67 5l-17 75q-3 14 -5.5 17.5t-13.5 7.5q-26 8 -53 11v-242q37 -14 60.5 -26.5
t50.5 -33.5t40 -52t13 -72q0 -73 -43.5 -120.5t-120.5 -61.5v-85zM156 508q0 -40 22.5 -65t64.5 -44v211q-41 -9 -64 -35.5t-23 -66.5zM392 174q0 69 -78 105v-206q78 21 78 101z" />
    <glyph glyph-name="Euro.tf" 
d="M41 373l12 61h47q19 131 89 197.5t173 66.5q94 0 157 -34v-145l-64 4l-13 74q-2 14 -13 17q-23 10 -71 10q-65 0 -108.5 -46.5t-56.5 -143.5h205l-12 -61h-198v-23q0 -29 1 -42h188l-12 -61h-171q27 -186 163 -186q46 0 71 10q11 5 13 18l13 73l64 4v-145
q-23 -11 -70 -22t-96 -11q-221 0 -253 259h-79l12 61h62v65h-53z" />
    <glyph glyph-name="cent.tf" 
d="M351 182q33 3 53 9q9 3 11 14l12 65l63 3v-133q-54 -27 -139 -31v-99h-71v102q-194 24 -194 245q0 109 52 171.5t142 76.5v103h71v-100q77 -2 137 -30v-131l-64 3l-11 65q-1 11 -12 14q-22 7 -50 8v-355zM280 531q-98 -29 -98 -168q0 -147 98 -175v343z" />
    <glyph glyph-name="sterling.tf" 
d="M523 0h-459l-13 59q52 40 64 80t12 132v49h-80v72h80v89q0 217 223 217q79 0 126 -31.5t47 -115.5l-84 -12q0 51 -23.5 69.5t-68.5 18.5q-70 0 -99 -35.5t-29 -125.5v-74h189v-72h-189v-54q0 -73 -12 -115.5t-52 -82.5h271q13 0 15 11l16 85h66v-164z" />
    <glyph glyph-name="yen.tf" 
d="M495 598l-126 -206h99v-62h-133v-72h133v-62h-133v-114q0 -12 2.5 -15.5t13.5 -4.5l99 -8v-54h-318v54l94 7q11 1 14 4.5t3 16.5v114h-132v62h132v72h-132v62h95l-130 207q-9 14 -25 18l-45 11l10 54h221v-54l-71 -9l127 -216l129 216l-70 9l10 54h200v-54l-41 -10
q-16 -4 -26 -20z" />
    <glyph glyph-name="florin.tf" 
d="M481 352h-149l-48 -274q-16 -92 -54 -130.5t-118 -38.5q-36 0 -73.5 11.5t-57.5 26.5l28 62q49 -31 104 -31q34 0 53 19t28 68l50 277q2 10 -7 10h-93l12 67h101l20 109q16 88 56 129t122 41q72 0 133 -33l-22 -128l-60 4l-1 68q0 10 -9 13q-22 8 -43 8
q-42 0 -61.5 -25.5t-28.5 -76.5l-18 -99q-1 -10 7 -10h141z" />
    <glyph glyph-name="zeroslash.tosf" 
d="M282 -12q-71 0 -120 22.5t-74.5 65t-36 92.5t-10.5 116q0 50 7.5 93t25.5 82t46 66t72 43t100 16q69 0 117 -22t73.5 -63.5t36 -90t10.5 -111.5q0 -309 -247 -309zM136 279q0 -136 52 -184l132 409q-14 3 -30 3q-83 0 -118.5 -56.5t-35.5 -171.5zM285 62q81 0 115 58
t34 170q0 136 -48 183l-132 -409q10 -2 31 -2z" />
    <glyph glyph-name="zero.tosf" 
d="M282 -12q-71 0 -120 22.5t-74.5 65t-36 92.5t-10.5 116q0 50 7.5 93t25.5 82t46 66t72 43t100 16q69 0 117 -22t73.5 -63.5t36 -90t10.5 -111.5q0 -309 -247 -309zM285 62q81 0 115 58t34 170q0 110 -31.5 163.5t-112.5 53.5q-83 0 -118.5 -56.5t-35.5 -171.5
q0 -105 33.5 -161t115.5 -56z" />
    <glyph glyph-name="one.tosf" 
d="M461 0h-352v55l121 6q10 1 13 4.5t3 15.5v393q0 17 -14 21l-95 18l7 56h193v-488q0 -12 2.5 -15.5t13.5 -4.5l108 -7v-54z" />
    <glyph glyph-name="two.tosf" 
d="M499 0h-420v62l137 134q98 95 121 124q41 52 41 97q0 95 -112 95q-60 0 -85 -21t-25 -83l-85 9q0 51 17 86t48 51.5t62.5 23t72.5 6.5q198 0 198 -158q0 -87 -87 -179q-16 -17 -73 -71l-114 -108h208q13 0 15 11l15 85h66v-164z" />
    <glyph glyph-name="three.tosf" 
d="M362 266v-4q132 -24 132 -155q0 -89 -58 -139.5t-163 -50.5q-69 0 -126 23.5t-90 62.5l54 58q66 -68 161 -68q129 0 129 116q0 114 -137 114q-33 0 -71 -7v70l58 6q66 6 100 38.5t34 84.5q0 97 -107 97q-59 0 -86 -22t-27 -82l-85 9q0 167 203 167q100 0 147 -43t47 -116
q0 -119 -115 -159z" />
    <glyph glyph-name="four.tosf" 
d="M439 -67h-86v146h-302v66l230 432l74 -39l-206 -385h205v208h85v-208h93v-74h-93v-146z" />
    <glyph glyph-name="five.tosf" 
d="M465 494h-278l-13 -195q55 38 129 38q92 0 144 -52t52 -147q0 -98 -60 -159.5t-167 -61.5q-147 0 -227 85l55 61q66 -69 169 -69q57 0 97 35t40 106q0 68 -36 98t-85 30q-65 0 -125 -48l-66 29l21 325h265q13 0 15 11l14 54l56 4v-144z" />
    <glyph glyph-name="six.tosf" 
d="M496 501l-86 -10q0 50 -21 68.5t-69 18.5q-153 0 -160 -240q72 58 166 58q89 0 134 -50t45 -137q0 -102 -57 -161.5t-160 -59.5q-53 0 -92.5 18t-63.5 47.5t-38.5 73.5t-19.5 89t-5 101q0 57 11 109t37 105t79 85t128 32q172 0 172 -147zM163 266q6 -207 131 -207
q59 0 89.5 37t30.5 104q0 65 -24 96.5t-80 31.5q-71 0 -147 -62z" />
    <glyph glyph-name="seven.tosf" 
d="M275 -67h-92q8 97 32.5 187.5t59 160.5t67.5 121t69 92h-257q-13 0 -15 -11l-18 -91l-63 -4v181h455v-65q-92 -92 -159.5 -247.5t-78.5 -323.5z" />
    <glyph glyph-name="eight.tosf" 
d="M383 333q55 -32 86 -70.5t31 -96.5q0 -86 -62.5 -132t-161.5 -46q-94 0 -149.5 43t-55.5 123q0 99 120 185q-94 55 -94 148q0 76 55.5 118.5t138.5 42.5q90 0 140 -41.5t50 -107.5q0 -85 -98 -166zM257 306q-101 -73 -101 -146q0 -48 35.5 -75.5t95.5 -27.5q55 0 89 29
t34 74q0 23 -9.5 43t-20 32.5t-36 27.5t-39.5 21.5zM317 366q79 70 79 129q0 84 -107 84q-45 0 -74 -22t-29 -61q0 -24 9.5 -43t31 -35t39.5 -26t51 -26z" />
    <glyph glyph-name="nine.tosf" 
d="M77 -18l45 64q62 -54 143 -54q145 0 150 230q-69 -59 -166 -59q-89 0 -135.5 53t-46.5 150q0 101 57 159.5t161 58.5q54 0 94 -18t64 -47t38.5 -73t19.5 -88.5t5 -100.5q0 -340 -239 -340q-122 0 -190 65zM411 297q-2 35 -4 56.5t-10 55.5t-21 54t-38 35t-60 15
q-59 0 -89.5 -37t-30.5 -104q0 -140 106 -140q80 0 147 65z" />
    <glyph glyph-name="dollar.tosf" 
d="M490 176q0 -74 -44 -117t-123 -55v-84h-71v80q-116 3 -188 37v140h66l16 -69q2 -11 6 -16t16 -9q33 -13 84 -16v213q-40 11 -63.5 21t-51.5 28.5t-41.5 48.5t-13.5 72q0 78 46.5 122t123.5 54v74h71v-72q70 -3 159 -32v-152l-67 7l-16 77q-2 11 -6 15.5t-14 7.5
q-22 7 -56 9v-215q38 -12 62 -22t51 -29t40.5 -48.5t13.5 -69.5zM167 463q0 -37 22 -59t63 -37v189q-85 -18 -85 -93zM403 165q0 36 -20.5 57t-59.5 36v-186q80 19 80 93z" />
    <glyph glyph-name="Euro.tosf" 
d="M365 348h-195v-18q0 -35 1 -51h185l-12 -62h-165q31 -156 160 -156q48 0 71 10q11 3 13 17l13 74l64 4v-145q-23 -11 -70 -22t-96 -11q-216 0 -251 229h-84l12 62h66q-1 11 -1 36q0 22 1 33h-57l12 62h52q21 118 91 178t169 60q94 0 157 -34v-145l-64 4l-13 74
q-3 13 -14 17q-28 10 -70 10q-63 0 -106 -40.5t-58 -123.5h201z" />
    <glyph glyph-name="cent.tosf" 
d="M351 103q38 3 54 8q9 3 10 15l12 65l63 3v-131q-57 -27 -139 -31v-99h-71v102q-194 26 -194 245q0 109 52 171t142 77v103h71v-99q78 -4 137 -31v-131l-63 3l-11 63q-3 13 -12 16q-22 7 -51 8v-357zM182 286q0 -147 98 -177v344q-98 -29 -98 -167z" />
    <glyph glyph-name="sterling.tosf" 
d="M518 0h-451l-13 59q53 41 64.5 82.5t11.5 141.5v14h-80v71h80v63q0 217 215 217q79 0 126 -31.5t47 -115.5l-84 -12q0 49 -20.5 66.5t-69.5 17.5q-63 0 -92.5 -35t-29.5 -112v-58h181v-71h-181q0 -65 -2.5 -94.5t-16.5 -66.5t-45 -68h263q13 0 15 11l16 85h66v-164z" />
    </font>
</defs>
</svg>
